<?xml version="1.0" standalone="no"?>
<!DOCTYPE svg PUBLIC "-//W3C//DTD SVG 1.1//EN" "http://www.w3.org/Graphics/SVG/1.1/DTD/svg11.dtd" >
<svg xmlns="http://www.w3.org/2000/svg" xmlns:xlink="http://www.w3.org/1999/xlink" version="1.1">
<metadata></metadata>
<defs>
<font id="bpg_squareregular" horiz-adv-x="1150" >
<font-face units-per-em="2048" ascent="1556" descent="-492" />
<missing-glyph horiz-adv-x="692" />
<glyph unicode="&#xd;" horiz-adv-x="692" />
<glyph unicode=" "  horiz-adv-x="692" />
<glyph unicode="&#x09;" horiz-adv-x="692" />
<glyph unicode="&#xa0;" horiz-adv-x="692" />
<glyph unicode="!" horiz-adv-x="516" d="M163 0v227h190v-227h-190zM163 1487h190l-7 -1099h-174z" />
<glyph unicode="&#x22;" horiz-adv-x="569" d="M84 857v577h137v-577h-137zM349 857v577h138v-577h-138z" />
<glyph unicode="#" horiz-adv-x="1575" d="M107 466l53 145h315q11 32 21.5 59.5t20.5 54.5t20.5 55t22.5 61h-342l46 143h344q20 55 41.5 114.5t43.5 120t43.5 120t40.5 114.5h165l-164 -469h215q20 55 41.5 114.5t43.5 120t43 120t41 114.5h164l-165 -469h306l-50 -143h-307q-11 -31 -21 -59t-20.5 -55.5 t-20.5 -55.5t-21 -60h331l-50 -145h-329q-40 -113 -83.5 -233.5t-83.5 -232.5h-167l168 466h-220q-20 -55 -41 -114.5t-43 -119.5t-43.5 -119t-40.5 -113h-164l165 466h-319zM644 611h219l79 230h-216q-11 -31 -21 -59t-20 -55.5t-20 -55.5t-21 -60z" />
<glyph unicode="$" horiz-adv-x="1384" d="M129 404q0 12 1 33t3 47v27h190v-28.5t-1 -27.5q0 -8 -0.5 -15t-0.5 -12q0 -152 49 -204t189 -52h30.5t20.5 1v494q-255 6 -355 92q-106 90 -106 312q0 230 98 333h-1q99 103 320 103q16 0 26.5 -0.5t18.5 -0.5v101h178v-102h21q221 0 324 -86q102 -86 102 -278 q0 -12 -1.5 -33t-5.5 -68h-189v39q0 8 0.5 18t0.5 25q0 114 -46 151q-50 40 -197 40h-9v-459q131 -5 218.5 -29t138.5 -67q105 -90 105 -318q0 -245 -96 -354q-97 -110 -315 -110h-21.5h-12h-8h-9.5v-92h-178v94q-1 0 -4 -0.5t-4 -0.5q-8 0 -15.5 -0.5t-11.5 -0.5 q-234 0 -340 102q-107 102 -107 326zM343 1071q0 -119 48 -158q52 -38 220 -52v456h-22q-149 0 -198 -48q-48 -50 -48 -198zM789 168h19q148 0 198 53q51 52 51 213q0 132 -56 176q-55 46 -211 52z" />
<glyph unicode="%" horiz-adv-x="1858" d="M78 868v307q0 180 72 255q70 75 244 75h87q173 0 244 -74q35 -38 53 -101t18 -155v-307q0 -92 -18 -155t-53 -101q-71 -72 -244 -72h-87q-175 0 -245 74q-71 72 -71 254zM244 900q0 -128 28 -160q30 -30 130 -30h72q97 0 126 30q29 32 29 160v245q0 131 -30 161 q-28 31 -125 31h-72q-96 0 -129 -31q-29 -32 -29 -161v-245zM576 -18l524 1523h180l-525 -1523h-179zM1061 312v305q0 180 71 256q73 75 245 75h87q173 0 244 -74q72 -75 72 -257v-305q0 -182 -72 -257q-70 -73 -244 -73h-87q-173 0 -245 74q-71 76 -71 256zM1229 342 q0 -63 6.5 -103t21.5 -56q14 -16 46.5 -23t82.5 -7h69q101 0 130 30q29 32 29 159v246q0 129 -29 160q-31 31 -130 31h-69q-98 0 -128 -31q-29 -29 -29 -160v-246z" />
<glyph unicode="&#x26;" horiz-adv-x="1489" d="M113 474q0 91 17 164.5t46 120.5q28 39 72.5 69.5t101.5 47.5q-57 51 -83.5 123.5t-26.5 173.5q0 94 25 157.5t75 101.5q97 73 352 73q242 0 348 -78q110 -80 110 -258v-141h-200v131q0 94 -37 125q-20 17 -75 24t-146 7q-170 0 -212 -28q-33 -26 -33 -114 q0 -128 129 -237l11 -9q63 -53 123.5 -103.5t120.5 -101t121 -101.5t125 -104v180h200v-233q0 -22 -2 -48.5t-8 -58.5q66 -56 139.5 -117t139.5 -115l-119 -143l-222 187q-54 -101 -162 -144q-57 -23 -157 -33.5t-244 -10.5q-102 0 -175.5 6.5t-120.5 21.5q-95 29 -155 101 q-20 24 -35 56.5t-24.5 76.5t-14 101t-4.5 130zM317 458q0 -122 12 -168q6 -23 15.5 -40t23.5 -28q27 -26 98 -38h-1q75 -12 263 -12q75 0 133.5 9t95.5 26q32 16 54.5 40t33.5 56l-519 433q-57 -2 -98.5 -15.5t-63.5 -41.5q-47 -56 -47 -221z" />
<glyph unicode="'" horiz-adv-x="295" d="M80 857v577h137v-577h-137z" />
<glyph unicode="(" horiz-adv-x="664" d="M138 498v491q0 143 20.5 242t61.5 157q84 117 290 117h82v-190h-65q-111 0 -145 -51q-19 -28 -28 -98t-9 -182v-480q0 -225 37 -280q35 -52 145 -52h65v-190h-82q-206 0 -290 117q-41 58 -61.5 157t-20.5 242z" />
<glyph unicode=")" horiz-adv-x="664" d="M72 -18v190h64q111 0 145 52q38 54 38 280v480q0 226 -38 280q-33 51 -145 51h-64v190h82q205 0 289 -117q83 -115 83 -399v-491q0 -283 -83 -399q-84 -117 -289 -117h-82z" />
<glyph unicode="*" horiz-adv-x="1024" d="M92 1021v168h276l-137 238l142 83l139 -238l139 238l142 -83l-136 -238h275v-168h-275l136 -237l-142 -84l-139 237l-139 -238l-142 83l136 239h-275zM406 1045l106 -60l104 59v120l-104 62l-106 -61v-120z" />
<glyph unicode="+" horiz-adv-x="1706" d="M251 546v134h536v547h134v-547h534v-134h-534v-546h-134v546h-536z" />
<glyph unicode="," horiz-adv-x="692" d="M241 0v250h210v-274q0 -87 -55 -134t-155 -47v126q38 4 55 16.5t17 38.5v24h-72z" />
<glyph unicode="-" horiz-adv-x="825" d="M121 472v175h583v-175h-583z" />
<glyph unicode="." horiz-adv-x="692" d="M116 0v250h208v-250h-208z" />
<glyph unicode="/" horiz-adv-x="545" d="M-64 -185l525 1690h177l-528 -1690h-174z" />
<glyph unicode="0" horiz-adv-x="1384" d="M129 498v491q0 285 111 401q111 115 383 115h139q274 0 383 -115h-1q111 -117 111 -401v-491q0 -284 -111 -401h1q-109 -115 -383 -115h-139q-272 0 -383 115q-111 117 -111 401zM333 502q0 -69 3.5 -117t9.5 -74q6 -24 17.5 -44.5t25.5 -35.5q16 -17 35 -28t42 -19h-1 q50 -14 164 -14h127q113 0 161 14h-1q50 16 80 47q32 32 42 80q6 25 9.5 72.5t3.5 116.5v485q0 70 -3.5 117t-9.5 72q-11 49 -42 81q-17 16 -37.5 28t-46.5 20q-51 14 -156 14h-127q-113 0 -164 -14q-45 -13 -76 -46q-14 -16 -25.5 -36.5t-17.5 -45.5t-9.5 -72.5 t-3.5 -117.5v-483z" />
<glyph unicode="1" horiz-adv-x="1384" d="M260 1080l408 407h236v-1487h-197v1276q-78 -79 -161 -161.5t-160 -160.5z" />
<glyph unicode="2" horiz-adv-x="1384" d="M145 0v265q0 57 4.5 103t14.5 80q19 70 61 122q41 49 101 81q29 14 79.5 32t116.5 36q81 23 163.5 45t163.5 45q145 39 180 90q12 16 16 47q6 34 6 134q0 51 -3.5 86t-9.5 55q-5 17 -15.5 32.5t-24.5 25.5q-29 19 -113 28.5t-233 9.5q-203 0 -255 -43q-48 -38 -48 -179 v-105h-204v115q0 225 109 313q54 45 156 66t253 21q81 0 147 -2.5t108 -6.5t76 -11t57 -18q54 -25 95 -58t61 -73q43 -83 43 -271q0 -211 -65 -297q-30 -42 -92.5 -76t-148.5 -60q-100 -29 -202.5 -57t-202.5 -56q-125 -37 -158 -74q-32 -36 -32 -115v-139h901v-191h-1105z " />
<glyph unicode="3" horiz-adv-x="1384" d="M141 386v133h200v-149q0 -119 59 -157q66 -43 305 -43q169 0 235 17q28 8 51 21t36 30q10 17 16 61q6 45 6 161q0 126 -48 164q-50 39 -185 39h-241v187h221q135 0 182 44v-1q46 46 46 197q0 104 -11 139q-5 15 -13 28t-20 22q-22 19 -94.5 27.5t-210.5 8.5 q-202 0 -257 -37q-51 -33 -51 -133v-151h-200v147q0 97 30 167.5t87 112.5q57 40 156 62t231 22q86 0 150.5 -2.5t106.5 -7.5t77.5 -13.5t60.5 -20.5q42 -21 75 -52t51 -71q17 -39 26.5 -98.5t9.5 -140.5q0 -91 -11.5 -153.5t-36.5 -99.5q-36 -54 -104 -80q47 -15 73.5 -35 t47.5 -50q54 -72 54 -237q0 -50 -2 -91t-7 -75.5t-12.5 -63t-17.5 -53.5q-44 -99 -151 -141q-105 -38 -352 -38q-116 0 -194 4.5t-122 15.5q-43 11 -78.5 28t-62.5 43h1q-58 53 -85 128t-27 185z" />
<glyph unicode="4" horiz-adv-x="1384" d="M110 337v212l719 938h252v-958h220v-192h-220v-337h-201v337h-770zM326 529h554v723z" />
<glyph unicode="5" horiz-adv-x="1384" d="M136 350v113h201v-115q0 -103 57 -140h-1q64 -38 287 -38h50q121 0 172 18q25 8 46 23.5t38 35.5q18 20 26 57q5 20 7 53t2 79v66q0 54 -1.5 94.5t-5.5 66.5q-8 49 -23 81q-27 55 -88 78q-66 24 -215 24q-197 0 -262 -29q-60 -25 -64 -110h-198v780h996v-192h-797v-346 q19 18 40 30t46 21q38 14 102 19.5t157 5.5q82 0 142 -4t99 -13t74.5 -25.5t62.5 -36.5q36 -31 63.5 -71t43.5 -86v1q16 -46 23.5 -116.5t7.5 -165.5q0 -181 -25 -269v1q-26 -92 -86 -148q-32 -29 -70.5 -50.5t-84.5 -34.5q-43 -13 -110 -19t-158 -6q-225 0 -318 27 q-94 25 -153 93q-41 49 -62 112t-21 136z" />
<glyph unicode="6" horiz-adv-x="1384" d="M151 424v666q0 225 103 321q105 94 343 94h225q229 0 329 -79q105 -80 105 -259v-97h-201v65q0 107 -54 140q-57 38 -273 38q-148 0 -220 -9q-65 -8 -94 -28q-32 -20 -51.5 -67t-19.5 -104v-279q41 44 99 67q45 17 119 25.5t173 8.5q280 0 395 -71q123 -75 123 -243v-263 q0 -220 -129 -303q-56 -38 -144 -52h1q-41 -8 -117 -11t-190 -3q-293 0 -407 98q-115 99 -115 345zM341 472q0 -89 7 -140t22 -69q36 -47 102 -67h-1q71 -20 273 -20q201 0 257 36q52 33 52 148v207q0 104 -53 138q-29 19 -104 27.5t-198 8.5q-72 0 -126 -4t-92 -12 q-71 -16 -99 -46q-11 -11 -17.5 -26.5t-11.5 -38.5q-11 -50 -11 -142z" />
<glyph unicode="7" horiz-adv-x="1384" d="M169 1295v192h1079v-184l-706 -1303h-239l723 1295h-857z" />
<glyph unicode="8" horiz-adv-x="1384" d="M137 434q0 176 47 249q35 55 116 89q-67 30 -98 84q-43 71 -43 228q0 123 12 180q14 62 44 109q49 72 158 103q107 29 327 29q165 0 268 -19t151 -57q60 -51 85 -122v1q24 -68 24 -213q0 -81 -12 -142.5t-34 -99.5q-32 -55 -96 -83q38 -16 67 -37.5t46 -50.5 q48 -75 48 -244q0 -80 -5 -139t-16 -99q-22 -77 -75 -127q-28 -25 -68 -43t-91 -28t-129 -15t-187 -5q-214 0 -316 30q-103 30 -163 104q-17 20 -28.5 48t-19.5 63q-7 33 -9.5 84.5t-2.5 122.5zM337 438q0 -99 11 -146q8 -40 30 -61h-1q13 -14 38 -25t57 -19q73 -15 218 -15 q69 0 121.5 3t87.5 8q30 5 54.5 13.5t38.5 19.5q31 25 41 62q14 44 14 142q0 78 -8 121q-8 41 -23 63q-25 39 -85 55q-32 8 -92 12t-149 4q-75 0 -128.5 -3t-86.5 -8q-59 -9 -87 -32q-27 -23 -39 -68.5t-12 -125.5zM361 1071q0 -133 55 -172q58 -41 286 -41q107 0 173.5 11 t94.5 31q54 40 54 180q0 41 -1.5 71t-5.5 49q-4 18 -9 31.5t-11 24.5q-11 16 -33 27t-59 18t-90.5 10.5t-126.5 3.5q-65 0 -114.5 -2.5t-84.5 -8t-58 -14.5t-36 -22q-18 -18 -25 -51q-9 -39 -9 -146z" />
<glyph unicode="9" horiz-adv-x="1384" d="M108 316v97h201v-65q0 -107 54 -141q60 -37 273 -37q148 0 219 9h-1q67 11 96 28q16 10 29 27.5t22.5 40t14.5 49t5 54.5v283q-39 -45 -100 -70q-45 -17 -119 -25.5t-174 -8.5q-276 0 -396 70q-120 75 -120 243v265q0 217 129 302q29 17 67 31.5t81 21.5q84 15 300 15 q292 0 408 -99q116 -98 116 -345v-667q0 -226 -103 -320q-100 -93 -343 -93h-225q-230 0 -330 76q-104 81 -104 259zM311 916q0 -103 53 -138q58 -36 302 -36q145 0 218 16q34 8 59 19t39 28q19 19 28 62q11 50 11 145q0 91 -7 141t-21 67q-20 25 -46 41.5t-59 27.5 q-35 11 -103 15.5t-168 4.5q-199 0 -255 -37q-51 -33 -51 -148v-208z" />
<glyph unicode=":" horiz-adv-x="692" d="M241 0v250h210v-250h-210zM241 811v252h210v-252h-210z" />
<glyph unicode=";" horiz-adv-x="692" d="M241 0v250h210v-274q0 -87 -55 -134t-155 -47v126q38 4 55 16.5t17 38.5v24h-72zM241 811v252h210v-252h-210z" />
<glyph unicode="&#x3c;" horiz-adv-x="1706" d="M261 559v107l1184 488v-150l-960 -391q239 -97 480.5 -194.5t479.5 -193.5v-149z" />
<glyph unicode="=" horiz-adv-x="1706" d="M251 365v134h1204v-134h-1204zM251 728v134h1204v-134h-1204z" />
<glyph unicode="&#x3e;" horiz-adv-x="1706" d="M261 76v149l959 388q-239 97 -480 195.5t-479 195.5v149l1184 -487v-107z" />
<glyph unicode="?" horiz-adv-x="1063" d="M71 1000v164q0 185 109 264q107 77 373 77q133 0 222.5 -21.5t138.5 -66.5h-1q98 -86 98 -314q0 -183 -40 -275q-41 -92 -144 -138h1q-14 -7 -34.5 -16t-46.5 -20q-84 -38 -131.5 -80.5t-47.5 -84.5v-92h-200v134q0 95 44 151q43 57 197 124l3 1q2 1 4.5 2t4.5 2 q66 29 107.5 53.5t55.5 44.5h-1q17 25 25 73.5t8 124.5q0 126 -42 167q-42 43 -172 43q-72 0 -125.5 -2t-85.5 -6q-54 -6 -76 -22q-24 -20 -35.5 -65t-11.5 -127q0 -17 0.5 -29t0.5 -21v-45h-198zM368 0v224h200v-224h-200z" />
<glyph unicode="@" horiz-adv-x="2048" d="M122 542q0 204 85 379.5t251 312.5q132 109 296 164t358 55q161 0 305 -43q72 -23 134.5 -54t113.5 -70q127 -99 194 -229t67 -281q0 -171 -62 -309.5t-182 -233.5q-72 -54 -151.5 -82.5t-162.5 -28.5q-183 0 -204 132q-51 -65 -118.5 -98.5t-148.5 -33.5q-160 0 -242 85 t-82 253q0 233 136 390q137 161 334 161q175 0 249 -133l44 96h129l-141 -571l1 1q-5 -22 -8 -36.5t-5 -24t-3 -15.5t-1 -10q0 -33 22.5 -51.5t62.5 -18.5q46 0 96.5 20t96.5 56q43 36 78.5 85.5t60.5 108.5t39 125.5t14 138.5q0 238 -186 391q-94 78 -214 116t-268 38 q-165 0 -303.5 -47.5t-250.5 -141.5q-137 -119 -209.5 -276t-72.5 -344q0 -165 57 -289t174 -219v1q97 -78 231.5 -122t285.5 -44q165 0 324 50t299 146l60 -85q-306 -231 -663 -231q-382 0 -617 184q-155 117 -229 272t-74 361zM730 451q0 -99 48 -154t134 -55 q47 0 91 17.5t80 46.5q77 68 103 175l59 235q-17 83 -67 128.5t-122 45.5q-140 0 -232 -122q-94 -125 -94 -317z" />
<glyph unicode="A" horiz-adv-x="1417" d="M13 0l550 1487h291l553 -1487h-208l-138 371h-704q-33 -91 -68.5 -185.5t-67.5 -185.5h-208zM424 553h571q-69 189 -136.5 371t-137.5 371h-25z" />
<glyph unicode="B" horiz-adv-x="1436" d="M180 0v1487h693q244 0 323 -75q83 -77 83 -305q0 -82 -11 -145t-29 -101q-28 -52 -89 -82q79 -33 116 -95q49 -79 49 -260q0 -248 -101 -336q-100 -88 -391 -88h-643zM376 191h509q139 0 181 39q43 40 43 216q0 147 -49 187q-48 42 -275 42h-409v-484zM376 862h503 q118 0 158 40q38 40 38 188q0 137 -40 171q-43 34 -226 34h-433v-433z" />
<glyph unicode="C" horiz-adv-x="1399" d="M129 498v491q0 286 112 401t390 115h170q276 0 388 -99q115 -99 115 -333v-83h-205v60q0 156 -60 210q-61 55 -250 55h-112q-65 0 -111.5 -4t-75.5 -11q-53 -15 -90 -50q-37 -36 -52 -87q-7 -28 -10.5 -81t-3.5 -133v-412q0 -155 14 -213q14 -52 52 -88q35 -34 87 -49 q26 -8 74 -11.5t116 -3.5h112q192 0 253 58q60 57 60 228q0 27 -1 51.5t-2 37.5h205v-115q0 -250 -112 -350h1q-109 -100 -392 -100h-170q-278 0 -390 115t-112 401z" />
<glyph unicode="D" horiz-adv-x="1536" d="M177 0v1487h719q280 0 396 -113q116 -114 116 -390v-478q0 -277 -117 -392q-116 -114 -395 -114h-719zM376 182h494q202 0 266 65q66 66 66 257v468q0 202 -66 267q-63 66 -266 66h-494v-1123z" />
<glyph unicode="E" horiz-adv-x="1309" d="M175 0v1487h1055v-192h-857v-435h833v-187h-833v-482h857v-191h-1055z" />
<glyph unicode="F" horiz-adv-x="1214" d="M173 0v1487h944v-192h-745v-435h722v-187h-722v-673h-199z" />
<glyph unicode="G" horiz-adv-x="1503" d="M121 498v491q0 285 120 401q121 115 421 115h183q278 0 409.5 -96t131.5 -298v-81h-204v37q0 141 -68 193q-71 55 -278 55h-128q-75 0 -126.5 -4t-82.5 -11q-62 -15 -103 -52q-38 -32 -54 -87v1q-7 -29 -11 -82t-4 -131v-412q0 -78 4 -130t11 -81v1q16 -55 54 -88 q44 -38 101 -51q30 -8 82.5 -12t128.5 -4h128q136 0 190 14q26 7 49.5 18t42.5 28q34 31 48 80q8 27 12 75t4 117v70h-402v186h606v-262q0 -287 -120 -402q-120 -114 -421 -114h-183q-301 0 -421 114q-120 115 -120 402z" />
<glyph unicode="H" horiz-adv-x="1546" d="M177 0v1487h198v-625h796v625h198v-1487h-198v671h-796v-671h-198z" />
<glyph unicode="I" horiz-adv-x="526" d="M163 0v1487h200v-1487h-200z" />
<glyph unicode="J" horiz-adv-x="1208" d="M41 498v49h200v-43q0 -110 12.5 -178.5t35.5 -97.5q45 -56 198 -56h115q154 0 199 56q23 29 35.5 97.5t12.5 178.5v983h199v-1031q0 -251 -100 -362q-100 -112 -332 -112h-143q-121 0 -204 29t-133 86q-95 116 -95 401z" />
<glyph unicode="K" horiz-adv-x="1370" d="M177 0v1487h199v-613h96q147 152 294.5 306.5t293.5 306.5h264l-686 -711q93 -93 190.5 -191t196.5 -197t196.5 -197t189.5 -191h-274l-665 679h-96v-679h-199z" />
<glyph unicode="L" horiz-adv-x="1223" d="M174 0v1487h197v-1296h821v-191h-1018z" />
<glyph unicode="M" horiz-adv-x="1919" d="M182 0v1487h296l483 -1255q120 315 239 628t239 627h298v-1487h-198v1226q-117 -307 -234 -613.5t-233 -612.5h-225l-467 1225v-1225h-198z" />
<glyph unicode="N" horiz-adv-x="1587" d="M177 0v1487h277l755 -1243v1243h199v-1487h-277l-755 1245v-1245h-199z" />
<glyph unicode="O" horiz-adv-x="1526" d="M131 498v491q0 285 120 401q121 115 422 115h182q303 0 423 -114v1q119 -114 119 -403v-491q0 -286 -121 -402q-120 -114 -421 -114h-182q-302 0 -422 114q-120 115 -120 402zM335 537q0 -73 4.5 -126t12.5 -83q8 -26 22.5 -49.5t31.5 -39.5q44 -38 101 -51 q30 -8 82.5 -12t128.5 -4h90q76 0 129 4t83 12q60 13 102 51q38 34 53 87q8 29 12 81t4 130v412q0 77 -4 129t-12 82q-17 57 -55 90q-20 17 -45.5 29.5t-54.5 20.5q-30 7 -83 11t-129 4h-90q-76 0 -128.5 -4t-82.5 -11q-58 -15 -101 -52q-39 -33 -54 -90q-17 -60 -17 -210 v-411z" />
<glyph unicode="P" horiz-adv-x="1341" d="M175 0v1487h629q251 0 348 -76q100 -79 100 -274v-219q0 -200 -99 -279h1q-97 -77 -350 -77h-431v-562h-198zM373 754h430q78 0 127.5 9.5t72.5 26.5q43 33 43 128v213q0 94 -43 129q-44 35 -200 35h-430v-541z" />
<glyph unicode="Q" horiz-adv-x="1526" d="M131 498v491q0 286 121 401q120 115 421 115h183q302 0 422 -114v1q120 -114 120 -403v-491q0 -66 -5.5 -121t-13.5 -92q-8 -30 -20 -58t-29 -49l89 -88l-133 -136l-93 94q-20 -17 -48 -29t-59 -20q-73 -17 -230 -17h-183q-303 0 -421 114q-121 115 -121 402zM335 537 q0 -73 4.5 -126t12.5 -83q8 -26 22.5 -49.5t31.5 -39.5q22 -18 47 -31t54 -20q30 -8 82.5 -12t129.5 -4h125q113 0 167 6q14 2 26 3.5t21 3.5q-65 64 -134.5 133.5l-132.5 132.5l129 132l263 -259q4 38 6 83.5t2 96.5v445q0 153 -16 211q-17 58 -55 90q-20 17 -45.5 29.5 t-54.5 20.5q-30 7 -83 11t-129 4h-89q-77 0 -129.5 -4t-82.5 -11q-56 -15 -101 -52q-37 -31 -54 -90q-17 -60 -17 -210v-411z" />
<glyph unicode="R" horiz-adv-x="1432" d="M176 0v1487h673q250 0 347 -76q100 -79 100 -274v-219q0 -202 -140 -260q63 -28 96 -77q44 -67 44 -213v-368h-206v318q0 151 -45 197q-42 49 -177 49h-494v-564h-198zM374 754h443q174 0 224 40q49 40 49 146v169q0 107 -48 146q-25 20 -80.5 30t-144.5 10h-443v-541z " />
<glyph unicode="S" horiz-adv-x="1460" d="M136 420v91h200v-47q0 -65 5 -110.5t13 -74.5q17 -51 56 -75q17 -8 42.5 -15t57.5 -11q38 -4 113 -6t186 -2q118 0 183 15t95 48q16 17 23.5 60t7.5 119q0 152 -29 189q-27 36 -115 43l-446 35q-208 16 -290 107q-42 45 -62 119.5t-20 178.5q0 127 28.5 209.5t85.5 135.5 q48 42 131 59q40 8 109.5 12.5t172.5 4.5h52q226 0 318 -22q96 -24 160 -78q89 -77 89 -276q0 -28 -1 -52.5t-2 -36.5h-199v55q0 76 -8 115t-25 57q-27 26 -98 36q-77 12 -290 12q-109 0 -175.5 -11t-92.5 -34q-51 -48 -51 -188q0 -59 8.5 -99t24.5 -62v1q17 -20 49.5 -32.5 t82.5 -15.5l455 -38q187 -17 264 -106q76 -91 76 -290q0 -72 -4 -127t-15 -92q-21 -76 -65 -127q-28 -30 -66.5 -53.5t-85.5 -35.5q-47 -13 -128.5 -18.5t-200.5 -5.5h-72q-101 0 -172.5 5t-116.5 16t-81.5 29.5t-65.5 45.5h1q-58 49 -85 132.5t-27 210.5z" />
<glyph unicode="T" horiz-adv-x="1069" d="M-27 1295v192h1123v-192h-463v-1295h-199v1295h-461z" />
<glyph unicode="U" horiz-adv-x="1532" d="M163 498v989h200v-969q0 -138 14 -191v1q8 -25 19.5 -45t28.5 -36h-1q35 -32 84 -46q25 -5 70.5 -8.5t111.5 -3.5h152q66 0 112 3.5t71 8.5q23 7 45 19t40 27h-1q17 16 28 35.5t18 43.5q14 53 14 192v969h200v-989q0 -285 -116 -401q-114 -115 -399 -115h-176 q-286 0 -400 115q-115 115 -115 401z" />
<glyph unicode="V" horiz-adv-x="1331" d="M-9 1487h214l448 -1259q112 315 225 630t225 629h213l-545 -1487h-235z" />
<glyph unicode="W" horiz-adv-x="2062" d="M62 1487h205l317 -1197q79 300 159 600t159 597h256l321 -1197q78 299 158 599.5t158 597.5h207l-406 -1487h-234l-332 1220q-81 -304 -163 -610.5t-163 -609.5h-242z" />
<glyph unicode="X" horiz-adv-x="1305" d="M-35 0l582 780q-63 85 -129.5 174.5t-133.5 179.5t-133.5 179t-129.5 174h233l399 -554q97 137 198 277.5t199 276.5h236l-527 -705q70 -95 143 -193.5t146.5 -197.5t146.5 -198t143 -193h-231l-452 631l-230 -316t-228 -315h-232z" />
<glyph unicode="Y" horiz-adv-x="1219" d="M-108 1487h237l479 -661q119 165 240 331.5t239 329.5h238l-618 -830v-657h-196v654q-75 100 -153 205.5t-157 211.5t-157 211t-152 205z" />
<glyph unicode="Z" horiz-adv-x="1331" d="M92 0v199l909 1106h-867v182h1097v-195l-904 -1101h904v-191h-1139z" />
<glyph unicode="[" horiz-adv-x="664" d="M138 0v1487h454v-192h-260v-1102h260v-193h-454z" />
<glyph unicode="\" horiz-adv-x="545" d="M-66 1505h178l526 -1690h-177z" />
<glyph unicode="]" horiz-adv-x="664" d="M72 0v193h259v1102h-259v192h454v-1487h-454z" />
<glyph unicode="^" horiz-adv-x="2048" d="M393 877l555 580h152l552 -580h-191l-437 434q-109 -108 -219.5 -217.5t-219.5 -216.5h-192z" />
<glyph unicode="_" horiz-adv-x="1024" d="M-6 -334h1036v-136h-1036v136z" />
<glyph unicode="`" horiz-adv-x="1024" d="M241 1523h198l227 -377h-133z" />
<glyph unicode="a" horiz-adv-x="1157" d="M104 330q0 57 5 100.5t15.5 77t27 59t40.5 45.5q44 36 117 49q36 6 88.5 9.5t121.5 3.5t124.5 -6.5t93.5 -17.5q24 -8 46.5 -18.5t39.5 -25.5v127q0 116 -41 146q-45 34 -233 34q-67 0 -112 -7t-66 -21q-38 -23 -40 -114h-189v43q0 142 93 204q91 59 305 59 q82 0 144.5 -3.5t105.5 -10.5q45 -6 78.5 -18t55.5 -29q49 -40 70 -96q19 -53 19 -184v-736h-176l-4 71q-43 -45 -116.5 -65t-189.5 -20q-247 0 -335 73q-88 75 -88 271zM301 348q0 -110 45 -146q25 -17 75 -26.5t126 -9.5q134 0 205 29.5t71 84.5v108q0 63 -69.5 92.5 t-222.5 29.5q-140 0 -188 -34q-42 -32 -42 -128z" />
<glyph unicode="b" horiz-adv-x="1176" d="M157 0v1487h189v-522q48 54 121.5 83t178.5 29q229 0 322 -96q96 -98 96 -328v-243q0 -231 -96 -327q-93 -97 -322 -97q-113 0 -186.5 27.5t-118.5 89.5v-103h-184zM346 448q0 -150 70 -218t224 -68q141 0 183 47q45 48 45 235v175q0 186 -45 234q-44 48 -183 48 q-154 0 -224 -68t-70 -218v-167z" />
<glyph unicode="c" horiz-adv-x="1157" d="M112 410v243q0 234 96 329q98 95 334 95h71q110 0 192 -23.5t133 -65.5q49 -45 77 -122.5t30 -183.5l-195 -1q-5 135 -50 176q-45 42 -187 42h-71q-147 0 -191 -47q-22 -23 -32 -81.5t-10 -151.5v-175q0 -189 43 -235q44 -47 190 -47h71q142 0 189 45q47 44 47 173v37 h196v-39q0 -210 -102 -301q-100 -91 -328 -91h-71q-238 0 -335 96q-97 94 -97 328z" />
<glyph unicode="d" horiz-adv-x="1176" d="M112 410v243q0 229 96 327q96 97 323 97q63 0 117 -11.5t92 -28.5q49 -25 89 -72v522h190v-1487h-185v101q-45 -58 -119 -86.5t-184 -28.5q-227 0 -323 97q-96 99 -96 327zM308 444q0 -186 44 -235v1q43 -48 184 -48q153 0 223 68t70 218v167q0 150 -70 218t-223 68 q-141 0 -184 -48v1q-44 -49 -44 -235v-175z" />
<glyph unicode="e" horiz-adv-x="1157" d="M112 410v243q0 234 96 329q98 95 334 95h71q237 0 335 -95q97 -96 97 -329v-174l-737 -1q-1 -12 -1 -28.5v-39.5q0 -152 45 -200t190 -48h71q130 0 179 35q47 36 56 143h196q-13 -196 -116 -276q-99 -78 -313 -78h-71q-238 0 -335 96q-97 94 -97 328zM309 651h540v20 q0 137 -45 182q-46 46 -191 46h-71q-143 0 -189 -46q-44 -44 -44 -182v-20z" />
<glyph unicode="f" horiz-adv-x="688" d="M36 895v168h143v1q0 9 -0.5 21t-0.5 28q0 200 73 288q74 86 253 86q85 0 189 -9v-180q-22 5 -28 5.5t-9 0.5q-4 0 -8.5 0.5t-9.5 0.5q-11 0 -22 0.5t-20 0.5q-18 1 -30 1h-20q-111 0 -144 -32q-32 -27 -32 -162v-50h323v-168h-323v-895h-190v895h-144z" />
<glyph unicode="g" horiz-adv-x="1204" d="M141 -39h193q12 -107 55 -140q47 -35 173 -35h68q62 0 105.5 9.5t71.5 29.5t40.5 52t12.5 76v145q-47 -54 -120.5 -83t-179.5 -29q-228 0 -322 97q-95 97 -95 327v243q0 230 95 328q94 96 322 96q112 0 186 -28.5t119 -90.5v105h184v-1032q0 -233 -94 -328 q-95 -95 -325 -95h-70q-207 0 -305 77q-99 78 -114 276zM336 444q0 -186 45 -234t185 -48q154 0 224 68t70 218v167q0 150 -70 218t-224 68q-139 0 -185 -49q-45 -48 -45 -233v-175z" />
<glyph unicode="h" horiz-adv-x="1180" d="M154 0v1487h184v-516q90 106 315 106q212 0 296 -88q87 -86 87 -298v-691h-191v659q0 151 -43 197q-41 45 -168 45q-150 0 -220 -68.5t-70 -217.5v-615h-190z" />
<glyph unicode="i" horiz-adv-x="479" d="M145 0v1063h189v-1063h-189zM145 1277v210h189v-210h-189z" />
<glyph unicode="j" horiz-adv-x="508" d="M47 -228h72q29 0 40 24q15 28 15 155v1112h192v-1193q0 -262 -227 -262q-17 0 -40 2t-51 6zM174 1277v210h192v-210h-192z" />
<glyph unicode="k" horiz-adv-x="991" d="M154 0v1487h189v-823h19q82 99 167.5 200t167.5 199h223l-403 -475q57 -70 117.5 -144.5t122 -150t122 -150t117.5 -143.5h-243l-392 486h-18v-486h-189z" />
<glyph unicode="l" horiz-adv-x="479" d="M145 0v1487h189v-1487h-189z" />
<glyph unicode="m" horiz-adv-x="1810" d="M185 0v1063h186v-87q85 101 287 101q124 0 199 -35t117 -110q47 78 120.5 111.5t187.5 33.5q210 0 293 -86t83 -300v-691h-190v643q0 162 -41 211q-38 47 -157 47q-132 0 -192 -68t-60 -218v-615h-186v713q0 115 -38 150q-40 38 -155 38q-136 0 -200 -69.5t-64 -216.5 v-615h-190z" />
<glyph unicode="n" horiz-adv-x="1180" d="M154 0v1063h184v-92q90 106 315 106q212 0 296 -88q87 -86 87 -298v-691h-191v659q0 151 -43 197q-41 45 -168 45q-150 0 -220 -69t-70 -217v-615h-190z" />
<glyph unicode="o" horiz-adv-x="1157" d="M112 410v243q0 234 96 329q98 95 334 95h71q237 0 335 -95q97 -96 97 -329v-243q0 -235 -97 -329q-98 -95 -333 -95h-71q-238 0 -335 96q-97 94 -97 328zM309 444q0 -189 43 -235q44 -47 190 -47h71q147 0 192 48q44 47 44 234v175q0 185 -44 232q-45 48 -192 48h-71 q-147 0 -191 -47q-22 -23 -32 -81.5t-10 -151.5v-175z" />
<glyph unicode="p" horiz-adv-x="1176" d="M157 -392v1455h184v-105q45 62 119 90.5t186 28.5q229 0 322 -96q96 -98 96 -328v-243q0 -231 -96 -327q-93 -97 -322 -97q-105 0 -178.5 29t-121.5 83v-490h-189zM346 448q0 -150 70 -218t224 -68q141 0 183 47q45 48 45 235v175q0 186 -45 234q-44 48 -183 48 q-154 0 -224 -68t-70 -218v-167z" />
<glyph unicode="q" horiz-adv-x="1176" d="M112 410v243q0 229 96 327q96 97 323 97q114 0 186.5 -27t116.5 -91v104h185v-1455h-190v490q-38 -47 -89 -73q-39 -19 -91 -29t-118 -10q-227 0 -323 97q-96 99 -96 327zM308 444q0 -186 44 -235v1q43 -48 184 -48q153 0 223 68t70 218v167q0 150 -70 218t-223 68 q-141 0 -184 -48v1q-44 -49 -44 -235v-175z" />
<glyph unicode="r" horiz-adv-x="958" d="M151 0v1063h186v-85q39 53 102.5 76t158.5 23q87 0 150 -23t99 -65q73 -87 73 -298v-28h-191v50q0 114 -34 151q-35 37 -133 37q-58 0 -99.5 -16t-68.5 -50.5t-39.5 -89t-12.5 -130.5v-615h-191z" />
<glyph unicode="s" horiz-adv-x="1194" d="M116 297v46h193v-42q0 -84 49 -114h-1q52 -32 225 -32q190 0 231 32q38 30 38 123t-32 119q-16 14 -59 23.5t-115 13.5q-28 2 -65 3t-85 3q-209 6 -253 31v-1q-64 35 -92 97q-26 61 -26 168q0 180 95 246q91 64 392 64q236 0 321 -61h-1q91 -63 91 -237h-191v29 q0 58 -48 76q-53 25 -225 25q-162 0 -206 -29q-38 -24 -38 -113q0 -54 8 -78q6 -19 23 -27v1q20 -12 68 -18.5t124 -8.5q9 0 16.5 -0.5t13.5 -0.5h18.5t14.5 -1q129 -5 203 -14t109 -24q35 -17 63 -43t43 -55q14 -32 22.5 -76.5t8.5 -101.5q0 -59 -8 -103.5t-22 -76.5 q-15 -31 -42.5 -59t-65.5 -52q-36 -21 -114.5 -32t-212.5 -11q-279 0 -373 67q-95 67 -95 244z" />
<glyph unicode="t" horiz-adv-x="1010" d="M49 895v168h125v231h191v-231h502v-168h-502v-545q0 -114 34 -152v1q34 -37 136 -37t134 35q34 38 34 153v50h192v-28q0 -224 -78 -305t-310 -81q-185 0 -260 86q-73 87 -73 300v523h-125z" />
<glyph unicode="u" horiz-adv-x="1180" d="M144 372v691h190v-659q0 -151 43 -197q42 -45 171 -45q150 0 218.5 68.5t68.5 217.5v615h193v-1063h-185v91q-46 -55 -124 -80t-193 -25q-208 0 -295 87q-87 89 -87 299z" />
<glyph unicode="v" horiz-adv-x="967" d="M-1 1063h194l290 -839q72 208 145.5 419.5t145.5 419.5h189l-366 -1063h-225z" />
<glyph unicode="w" horiz-adv-x="1597" d="M54 1063h182l220 -826q55 207 110.5 414.5t109.5 411.5h239l223 -826q54 207 110 414.5t110 411.5h185l-288 -1063h-238l-221 825q-56 -205 -112 -413t-112 -412h-234z" />
<glyph unicode="x" horiz-adv-x="1036" d="M10 0l402 567q-42 59 -86.5 122t-89.5 126.5t-89.5 126t-86.5 121.5h220l236 -343q58 85 118.5 171.5t117.5 171.5h219l-348 -495q48 -67 99 -139t103 -145t102.5 -145t98.5 -139h-219l-291 417q-70 -103 -142 -208.5t-142 -208.5h-222z" />
<glyph unicode="y" horiz-adv-x="999" d="M32 1063h194l290 -839q71 209 144.5 420t144.5 419h191l-395 -1140q-65 -185 -135 -252q-70 -70 -189 -70q-18 0 -42 2.5t-58 7.5l1 171q14 -2 30 -3t36 -1q62 0 95 27q36 30 67 115l28 80h-31z" />
<glyph unicode="z" horiz-adv-x="1057" d="M111 0v192l610 692h-580v179h828v-168l-632 -719h632v-176h-858z" />
<glyph unicode="{" horiz-adv-x="1024" d="M164 464v145h24t21 -1q6 0 10.5 -0.5t7.5 -0.5q125 0 175 55q51 55 51 198v235q0 226 74 303q73 78 272 78h65v-143h-55q-118 0 -158 -43t-40 -185v-235q0 -82 -12 -144t-33 -99q-18 -27 -45.5 -52t-62.5 -40q38 -17 63.5 -39t44.5 -51q45 -75 45 -245v-234 q0 -144 39 -186q37 -42 151 -42q3 0 7.5 0.5t10.5 0.5q8 1 22.5 1h22.5v-143h-65q-199 0 -273 77q-73 76 -73 302v237q0 143 -51 199q-50 54 -175 54q-3 0 -7.5 -0.5t-10.5 -0.5q-8 -1 -22.5 -1h-22.5z" />
<glyph unicode="|" horiz-adv-x="1024" d="M441 -470v2031h144v-2031h-144z" />
<glyph unicode="}" horiz-adv-x="1024" d="M162 -260h57q120 0 156 41q40 43 40 185v234q0 175 44 247q17 28 45 49.5t65 38.5q-75 34 -110 90q-23 36 -33.5 97.5t-10.5 147.5v235q0 146 -39 188q-38 42 -151 42q-3 0 -7.5 -0.5t-10.5 -0.5q-8 -1 -22.5 -1h-22.5v143h65q198 0 272 -78q74 -77 74 -303v-235 q0 -143 51 -198q50 -55 175 -55q3 0 7.5 0.5t10.5 0.5q8 1 22.5 1h22.5v-145h-24t-21 1q-6 0 -10.5 0.5t-7.5 0.5q-126 0 -175 -54q-51 -56 -51 -199v-237q0 -225 -74 -302h1q-72 -77 -273 -77h-65v143z" />
<glyph unicode="~" horiz-adv-x="1706" d="M177 441v156q110 77 207.5 114t188.5 37q53 0 120.5 -14.5t150.5 -45.5q7 -4 14 -6q2 -1 3 -1t3 -1t3 -1t2 -1q10 -4 22 -8q160 -57 244 -57q39 0 82 10t91.5 31t103.5 54t119 79v-158q-106 -75 -204 -111.5t-192 -36.5q-51 0 -115.5 13.5t-144.5 42.5q-15 7 -25 10 q2 -1 -1 -1l-17 7q-80 29 -147.5 45t-111.5 16q-39 0 -81.5 -10t-90.5 -31.5t-103.5 -54t-120.5 -77.5z" />
<glyph unicode="&#xa4;" horiz-adv-x="1384" d="M29 520l53 158h131v137h-184l52 159h132v15q0 286 112 401t390 115h87q452 0 452 -465h-204q0 163 -61 221q-59 56 -213 56h-101q-149 0 -203 -60q-55 -61 -55 -245v-38h659l-52 -159h-607v-137h564l-53 -158h-511v-54q0 -172 54 -235q55 -61 204 -61h101q153 0 213 57 q61 58 61 270h204q0 -280 -110 -397q-109 -118 -342 -118h-87q-278 0 -390 115t-112 401v22h-184z" />
<glyph unicode="&#xa6;" horiz-adv-x="1024" d="M441 -340v776h144v-776h-144zM441 656v776h144v-776h-144z" />
<glyph unicode="&#xa7;" horiz-adv-x="1118" d="M57 769q0 85 46.5 145.5t133.5 89.5q-55 32 -78.5 84t-23.5 139q0 157 88 218h-1q43 31 122.5 45.5t196.5 14.5q201 0 288 -55q92 -58 92 -191v-65h-192v42q0 53 -34 72q-39 21 -166 21q-139 0 -171 -20q-27 -15 -27 -71q0 -42 19.5 -65t60.5 -38q106 -34 217.5 -70 t217.5 -71q215 -70 215 -256q0 -98 -67 -165q-45 -46 -112 -66q35 -24 55 -59q34 -59 34 -176q0 -162 -88 -227q-86 -63 -322 -63q-237 0 -327 54q-95 56 -95 195v87h192v-67q0 -53 34 -71q22 -11 69 -16t119 -5q73 0 121 6t68 17q33 24 33 88q0 48 -17 72.5t-59 36.5 l-363 118q-74 24 -128 51.5t-86 57.5q-65 64 -65 163zM252 801q0 -42 34.5 -73.5t107.5 -54.5l283 -91q92 18 140.5 52t48.5 79q0 41 -34 71t-108 54l-283 93q-92 -17 -140.5 -51t-48.5 -79z" />
<glyph unicode="&#xa9;" horiz-adv-x="1706" d="M121 723q0 145 56.5 278.5t162.5 242.5q103 103 233 157t279 54t282.5 -55t238.5 -160q103 -103 157.5 -235.5t54.5 -281.5q0 -151 -53 -281t-159 -233q-108 -106 -241.5 -162.5t-279.5 -56.5t-278 55.5t-238 161.5q-106 105 -160.5 237t-54.5 279zM238 723 q0 -123 46.5 -233.5t134.5 -199.5q89 -88 200 -134.5t233 -46.5q123 0 236.5 47t204.5 136q86 85 130.5 194t44.5 237q0 125 -45.5 237t-131.5 198q-89 88 -201 134.5t-238 46.5q-125 0 -235 -45t-196 -132q-89 -91 -136 -203.5t-47 -235.5zM460 727q0 204 109 330 q111 126 291 126q137 0 231 -74q97 -77 111 -219h-151q-17 78 -68.5 121t-126.5 43q-110 0 -171 -87.5t-61 -245.5q0 -153 64 -241q59 -84 168 -84q80 0 135.5 49t70.5 134h150q-14 -152 -115 -235q-99 -81 -247 -81q-181 0 -286 125q-104 123 -104 339z" />
<glyph unicode="&#xab;" horiz-adv-x="981" d="M84 531l254 325h217l-257 -325l257 -324h-217zM426 531l253 325h217l-257 -325l257 -324h-217z" />
<glyph unicode="&#xac;" horiz-adv-x="1706" d="M251 737v137h1204v-528h-132v391h-1072z" />
<glyph unicode="&#xad;" horiz-adv-x="825" d="M121 472v175h583v-175h-583z" />
<glyph unicode="&#xae;" horiz-adv-x="1706" d="M121 723q0 144 56.5 278.5t162.5 242.5q103 103 233 157t279 54q152 0 285 -54.5t236 -160.5q103 -103 157.5 -235.5t54.5 -281.5q0 -151 -53 -281t-159 -233q-108 -106 -241.5 -162.5t-279.5 -56.5q-148 0 -279 55.5t-237 161.5q-106 105 -160.5 237t-54.5 279zM238 723 q0 -123 46.5 -233.5t134.5 -199.5q89 -88 200 -134.5t233 -46.5q123 0 236.5 47t204.5 136q86 85 130.5 193t44.5 236t-45 239.5t-130 197.5q-89 88 -201 134.5t-240 46.5q-123 0 -232 -45t-197 -132q-91 -92 -138 -204.5t-47 -234.5zM553 305v859h320q184 0 271.5 -59.5 t87.5 -186.5q0 -91 -57 -157q-25 -26 -57 -45.5t-70 -28.5q22 -45 45.5 -94t47.5 -98.5t47.5 -97.5t44.5 -92h-184l-174 360h-159v-360h-163zM716 786h134q124 0 173 29h-1q44 29 44 95q0 71 -50.5 101.5t-165.5 30.5h-134v-256z" />
<glyph unicode="&#xaf;" horiz-adv-x="1024" d="M243 1243v153h538v-153h-538z" />
<glyph unicode="&#xb0;" horiz-adv-x="674" d="M47 1162q0 120 85 205q87 84 206 84q121 0 203 -85q85 -85 85 -204q0 -120 -86 -206q-84 -85 -204 -85q-124 0 -205 84q-84 85 -84 207zM154 1162q0 -78 54 -130q53 -52 130 -52t129 52q53 53 53 130q0 75 -54 129q-52 53 -128 53q-77 0 -130 -53q-54 -54 -54 -129z" />
<glyph unicode="&#xb1;" horiz-adv-x="1706" d="M251 50v135h1204v-135h-1204zM251 703v135h536v338h134v-338h534v-135h-534v-338h-134v338h-536z" />
<glyph unicode="&#xb4;" horiz-adv-x="1024" d="M358 1146l227 377h198l-292 -377h-133z" />
<glyph unicode="&#xb6;" horiz-adv-x="1024" d="M76 1119q0 161 111 260t291 99h470v-107h-124v-1371h-118v1371h-142v-1371h-121v762q-165 12 -263 103q-104 98 -104 254z" />
<glyph unicode="&#xb7;" horiz-adv-x="692" d="M211 793q0 55 40 94q39 40 95 40t95 -40q40 -39 40 -94t-40 -94q-38 -39 -95 -39t-95 39q-40 39 -40 94z" />
<glyph unicode="&#xbb;" horiz-adv-x="981" d="M85 207l256 324q-30 37 -62.5 79t-66 84t-66 83.5t-61.5 78.5h217l253 -325l-253 -324h-217zM428 207l254 324q-29 37 -62 79t-66 85t-65.5 84t-60.5 77h215l254 -325l-254 -324h-215z" />
<glyph unicode="&#xf7;" horiz-adv-x="1706" d="M251 546v134h1204v-134h-1204zM731 270q0 26 9.5 48.5t26.5 39.5t39 26.5t48 9.5t48.5 -9.5t39.5 -26t26.5 -39.5t9.5 -49t-9.5 -48t-26.5 -38.5t-39.5 -26t-48.5 -9.5t-48.5 9.5t-39 26t-26 38.5t-9.5 48zM731 956q0 52 36 88q39 37 87 37t87 -37q37 -37 37 -88 q0 -26 -9.5 -48.5t-26.5 -39t-39.5 -26t-48.5 -9.5t-48.5 9.5t-39 26t-26 39t-9.5 48.5z" />
<glyph unicode="&#x2c6;" horiz-adv-x="1024" d="M210 1146l217 377h170l217 -377h-133l-169 241q-43 -61 -85 -120.5t-84 -120.5h-133z" />
<glyph unicode="&#x2c7;" horiz-adv-x="1024" d="M210 1523h133l169 -241q43 62 85 121.5t84 119.5h133l-217 -377h-170z" />
<glyph unicode="&#x2d8;" horiz-adv-x="1024" d="M225 1482h116q6 -75 46.5 -108.5t124.5 -33.5t123.5 33.5t46.5 108.5h117q-5 -77 -24.5 -132.5t-54.5 -91.5t-86.5 -53t-121.5 -17q-137 0 -207 71t-80 223z" />
<glyph unicode="&#x2d9;" horiz-adv-x="1024" d="M419 1215v208h186v-208h-186z" />
<glyph unicode="&#x2da;" horiz-adv-x="1024" d="M259 1346q0 107 73 181q74 74 180 74q105 0 180 -75q75 -74 75 -180t-74 -180q-76 -73 -181 -73q-53 0 -97.5 18.5t-82.5 54.5q-73 76 -73 180zM386 1346q0 -55 36 -90q36 -36 90 -36q51 0 90 37q36 36 36 89q0 54 -36 90q-38 36 -90 36q-54 0 -90 -36q-36 -35 -36 -90z " />
<glyph unicode="&#x2db;" horiz-adv-x="1024" d="M310 -287q0 29 12 60.5t36 62.5q35 48 75.5 101.5t75.5 101.5h109l-121 -204l1 1q-14 -26 -19.5 -40.5t-5.5 -25.5q0 -18 18 -18h121v-144h-175q-36 0 -60.5 5t-39.5 17.5t-21 32.5t-6 50z" />
<glyph unicode="&#x2dc;" horiz-adv-x="1024" d="M207 1203q26 105 80.5 159.5t133.5 54.5q34 0 57 -8t47 -15.5t47 -14.5q11 -4 24 -6.5t24 -2.5q51 0 80 70h119q-61 -214 -212 -214q-31 0 -70 10l-92 28q-17 5 -26.5 7t-20.5 2q-21 0 -41.5 -18.5t-36.5 -51.5h-113z" />
<glyph unicode="&#x2dd;" horiz-adv-x="1024" d="M314 1146l162 377h176l-226 -377h-112zM541 1146l182 377h178l-246 -377h-114z" />
<glyph unicode="&#x3a9;" horiz-adv-x="1579" d="M116 0v174h298q-150 126 -222 276t-72 332q0 319 187 524q190 205 484 205q291 0 482 -204q188 -203 188 -523q0 -184 -72 -332.5t-224 -277.5h298v-174h-604v154q203 121 305.5 282.5t102.5 356.5q0 247 -134 396q-132 150 -342 150q-213 0 -345 -149 q-134 -149 -134 -395q0 -198 103 -360t305 -281v-154h-604z" />
<glyph unicode="&#x3c0;" horiz-adv-x="1171" d="M-12 791q30 170 97 226q33 30 88 44t133 14h850l-35 -157h-176q-27 -128 -54.5 -255t-54.5 -255q-30 -135 -30 -179q0 -46 20 -65t68 -19q26 0 55 4.5t60 10.5l-33 -156q-34 -11 -63.5 -15.5t-52.5 -4.5q-109 0 -168 56.5t-59 159.5q0 25 3 54t8 64t16 92.5t28 135.5 q19 91 39 185t40 187h-315q-48 -226 -96.5 -458.5t-96.5 -459.5h-176l193 918h-13q-45 0 -70.5 -30.5t-36.5 -96.5h-168z" />
<glyph unicode="&#x10a0;" d="M100 350l20 460h200l-20 -460q0 -199 175 -199h200q175 0 175 199v536q0 200 -175 200h-30q-300 0 -300 405h200q0 -230 98 -230h32q375 0 375 -375v-536q0 -375 -375 -375h-200q-375 0 -375 375z" />
<glyph unicode="&#x10a1;" d="M100 350v380q0 375 373 375h15l20 123q0 70 -100 116.5t-100 155.5h231q1 -27 85 -92t74 -180l-10 -123q362 -7 362 -375v-380q0 -375 -375 -375h-200q-375 0 -375 375zM300 350q0 -199 175 -199h200q175 0 175 199v380q0 200 -175 200h-200q-175 0 -175 -200v-380z" />
<glyph unicode="&#x10a2;" horiz-adv-x="1230" d="M100 350v318q0 375 373 375h267v62q0 220 -170 220t-170 -150h-200q0 325 370 325t370 -395v-93q190 -77 190 -344v-318q0 -375 -375 -375h-280q-375 0 -375 375zM300 350q0 -199 175 -199h280q175 0 175 199v318q0 200 -175 200h-280q-175 0 -175 -200v-318z" />
<glyph unicode="&#x10a3;" horiz-adv-x="1790" d="M100 819v306q0 375 375 375h92q179 0 273 -103q95 103 275 103h202q373 0 373 -375v-348q0 -375 -375 -375h-200q-375 0 -375 375v348q0 200 -175 200h-90q-175 0 -175 -200v-306q0 -291 366 -619l359 10q375 0 375 -235h-200q0 60 -175 60l-787 -20l-2 175l186 4 q-322 331 -322 625zM940 777q0 -199 175 -199h200q175 0 175 199v348q0 200 -175 200h-200q-175 0 -175 -200v-348z" />
<glyph unicode="&#x10a4;" d="M100 350l30 297h200l-30 -297q0 -199 175 -199h200q175 0 175 199v775q0 200 -175 200h-140q-175 0 -175 -200l10 -191h-200l-10 191q0 375 373 375h142q375 0 375 -375v-775q0 -375 -375 -375h-200q-375 0 -375 375z" />
<glyph unicode="&#x10a5;" d="M100 349l20 249h200l-20 -249q0 -199 175 -199h200q175 0 175 199v125q0 200 -175 200h-200v176h183q172 0 172 199v76q0 200 -175 200h-140q-175 0 -175 -200l20 -132h-200l-20 132q0 375 373 375h142q375 0 375 -375v-76q0 -185 -121 -278q141 -93 141 -297v-125 q0 -375 -375 -375h-200q-375 0 -375 375z" />
<glyph unicode="&#x10a6;" horiz-adv-x="1310" d="M100 1075v49q0 375 373 375h42q395 -10 405 -385v-10q-2 -19 -4 -37q294 -46 294 -357v-360q0 -375 -375 -375h-200q-375 0 -375 375v321q0 34 8 70q-168 83 -168 334zM300 1075q0 -209 175 -209h70q175 -1 175 238v10q-10 200 -205 210h-40q-175 0 -175 -200v-49z M460 350q0 -199 175 -199h200q175 0 175 199v360q0 157 -140 184q-89 -188 -325 -194h-84l-1 -29v-321z" />
<glyph unicode="&#x10a7;" horiz-adv-x="1760" d="M100 350v775q0 375 373 375h162q180 0 278 -123q90 123 270 123h102q375 0 375 -375v-775q0 -345 -394 -375l-1 176q195 30 195 199v775q0 200 -175 200h-100q-162 0 -183 -138q5 -30 8 -62v-775q0 -375 -375 -375h-160q-375 0 -375 375zM300 350q0 -199 175 -199h160 q175 0 175 199v775q0 200 -175 200h-160q-175 0 -175 -200v-775z" />
<glyph unicode="&#x10a8;" d="M100 350v774q0 375 373 375h202q375 0 375 -375v-774q0 -325 -355 -375v176q155 24 155 199v774q0 200 -175 200h-200q-175 0 -175 -200v-774q0 -175 155 -199v-176q-355 50 -355 375z" />
<glyph unicode="&#x10a9;" d="M100 350l30 314h200l-30 -314q0 -199 175 -199h200q175 0 175 199v154q0 200 -180 201v-1h-185v175l170 -1q175 0 175 201q-20 206 -205 236l50 185q335 -60 355 -421q0 -185 -118 -280q138 -94 138 -295v-154q0 -375 -375 -375h-200q-375 0 -375 375z" />
<glyph unicode="&#x10aa;" horiz-adv-x="2300" d="M100 797v329q0 375 373 375h92q180 0 274 -123q94 123 274 123h52q178 0 272 -120q94 120 278 120h112q373 0 373 -375v-349q0 -345 -365 -415v186q165 60 165 229v349q0 200 -175 200h-110q-175 0 -175 -200v-379h-200v379q0 200 -175 200h-50q-175 0 -175 -200v-379 h-200v379q0 200 -175 200h-90q-175 0 -175 -200v-329q0 -255 505 -577h560q375 0 375 -245h-200q0 70 -175 70h-1087v175h214q-392 293 -392 577z" />
<glyph unicode="&#x10ab;" d="M100 350v350q0 375 373 375h202q101 0 175 -48v177q0 120 -165 120h-226q-135 0 -135 -120h-200q0 295 333 295h228q365 0 365 -295v-486v-18v-350q0 -375 -375 -375h-200q-375 0 -375 375zM300 350q0 -199 175 -199h200q175 0 175 199v350q0 200 -175 200h-200 q-175 0 -175 -200v-350z" />
<glyph unicode="&#x10ac;" d="M100 350v350v18v448q0 315 355 315l495 -1v-175l-495 1q-155 0 -155 -140v-138q73 47 173 47h202q375 0 375 -375v-350q0 -375 -375 -375h-200q-375 0 -375 375zM300 350q0 -199 175 -199h200q175 0 175 199v350q0 200 -175 200h-200q-175 0 -175 -200v-350z" />
<glyph unicode="&#x10ad;" horiz-adv-x="1710" d="M100 350v776q0 375 373 375h112q180 0 275 -123q94 123 275 123h102q373 0 373 -375v-776q0 -345 -405 -375v176q205 30 205 199v776q0 200 -175 200h-100q-175 0 -175 -200v-626h-200v626q0 200 -175 200h-110q-175 0 -175 -200v-776q0 -169 205 -199v-176 q-405 30 -405 375z" />
<glyph unicode="&#x10ae;" d="M100 350l30 330h200l-30 -330q0 -199 175 -199h200q175 0 175 199v201q0 200 -175 200h-200l-2 175h202q175 0 175 168q0 139 -174 140h-91q-300 0 -300 267h200q0 -92 98 -92h92q375 0 375 -315q0 -174 -136 -261q136 -96 136 -282v-201q0 -375 -375 -375h-200 q-375 0 -375 375z" />
<glyph unicode="&#x10af;" d="M100 350l20 285h200l-20 -285q0 -199 175 -199h200q175 0 175 199v976l-175 -6v-154q0 -345 -355 -345h-200v176h200q155 0 155 169v148l-255 -8v175l830 20v-1151q0 -375 -375 -375h-200q-375 0 -375 375z" />
<glyph unicode="&#x10b0;" horiz-adv-x="1710" d="M100 350v352q0 243 157 329q-57 70 -57 176q0 283 373 283h622v-175h-620q-175 0 -175 -108q0 -127 176 -130h9q180 0 275 -123q94 123 275 123h102q373 0 373 -375v-352q0 -345 -395 -375v176q195 30 195 199v352q0 200 -175 200h-100q-175 0 -175 -200v-352h-200v352 q0 200 -175 200h-110q-175 0 -175 -200v-352q0 -169 195 -199v-176q-395 30 -395 375z" />
<glyph unicode="&#x10b1;" d="M100 350v1150h200v-1150q0 -199 175 -199h200q175 0 175 199v260q0 185 -43 199q-255 30 -255 385h200q0 -186 53 -209q245 -20 245 -375v-260q0 -375 -375 -375h-200q-375 0 -375 375z" />
<glyph unicode="&#x10b2;" horiz-adv-x="1343" d="M100 350v720q0 375 373 375h103v55h180v-55h112q375 0 375 -375v-720q0 -375 -375 -375h-393q-375 0 -375 375zM300 350q0 -199 175 -199h393q175 0 175 199v735q0 200 -175 200h-112v-693h-180v693h-101q-175 0 -175 -200v-735z" />
<glyph unicode="&#x10b3;" d="M100 350l20 335h200l-20 -335q0 -199 175 -199h200q175 0 175 199v776q0 200 -125 200q-123 0 -123 -200v-251h-200v251q0 200 -175 200h-125v175h125q169 0 264 -122q81 122 234 122q325 0 325 -375v-776q0 -375 -375 -375h-200q-375 0 -375 375z" />
<glyph unicode="&#x10b4;" horiz-adv-x="1790" d="M100 811v314q0 375 373 375h202q180 0 274 -123q94 123 274 123h92q375 0 375 -375v-120q0 -246 -175 -354q155 -94 155 -282v-20q0 -375 -374 -375h-479q-380 0 -380 293h200q0 -117 178 -117h480q175 0 175 199v20q0 185 -175 201h-110v172h110q195 -5 195 263v120 q0 200 -175 200h-90q-195 0 -175 -200v-314q0 -375 -375 -375h-200q-375 0 -375 375zM300 811q0 -199 175 -199h200q175 0 175 199v314q0 200 -175 200h-200q-175 0 -175 -200v-314z" />
<glyph unicode="&#x10b5;" d="M100 349l20 277h200l-20 -277q0 -199 175 -199h200q175 0 175 199v625q-7 276 -275 276h-50q-175 0 -175 -200l10 -171h-200l-10 171q0 375 373 375h52q167 0 275 -88v162h200v-1150q0 -375 -375 -375h-200q-375 0 -375 375z" />
<glyph unicode="&#x10b6;" horiz-adv-x="1700" d="M100 776v350q0 375 373 375h102q180 0 275 -123q94 123 275 123h102q373 0 373 -375v-310q0 -355 -355 -435v176q155 80 155 259v310q0 200 -175 200h-100q-175 0 -175 -200v-330h-200v330q0 200 -175 200h-100q-175 0 -175 -200v-350q0 -292 414 -557h231 q375 0 375 -245h-200q0 70 -175 70h-767l-2 175h247q-323 259 -323 557z" />
<glyph unicode="&#x10b7;" d="M100 349l10 117h200l-10 -117q0 -199 175 -199h200q175 0 175 199v233q-102 -42 -255 -42h-10q-455 0 -455 375v172h1v-1q5 395 375 415v-175q-175 -20 -175 -251h-1v-160q0 -199 255 -199h10q255 0 255 199v564h200v-1130q0 -375 -375 -375h-200q-375 0 -375 375z" />
<glyph unicode="&#x10b8;" horiz-adv-x="1238" d="M100 1204q0 295 341 295l158 -86q90 86 198 86q341 0 341 -275v-874q0 -375 -375 -375h-200q-375 0 -375 375v270q0 375 373 375h202q101 0 175 -48v277q0 100 -139 100q-135 0 -105 -180h-250q38 113 82 180h-85q-141 0 -141 -120h-200zM388 350q0 -199 175 -199h200 q175 0 175 199v270q0 200 -175 200h-200q-175 0 -175 -200v-270z" />
<glyph unicode="&#x10b9;" d="M100 0v1156q0 345 375 345l34 -1v1q375 0 375 -301q-11 -103 -84 -161q243 -105 250 -389v-240q0 -375 -405 -435v186q205 40 205 249v240q0 250 -235 250h-140q-175 0 -175 -200v-700h-200zM300 1028q73 47 173 47h66q145 10 145 125q0 125 -174 126v-1l-35 1 q-175 0 -175 -170v-128z" />
<glyph unicode="&#x10ba;" horiz-adv-x="1200" d="M100 349v1123h200v-1123q0 -199 175 -199h250q175 0 175 199v148q0 200 -175 200h-210v175h210v1q155 0 155 162q0 151 -54 151q-255 0 -255 315h200q0 -137 54 -138q255 0 255 -328q0 -162 -106 -246q126 -94 126 -292v-148q0 -375 -375 -375h-250q-375 0 -375 375z" />
<glyph unicode="&#x10bb;" d="M100 350v350q0 375 375 375h375v425h200v-1150q0 -375 -375 -375h-200q-375 0 -375 375zM300 350q0 -199 175 -199h200q175 0 175 199v550h-375q-175 0 -175 -200v-350z" />
<glyph unicode="&#x10bc;" horiz-adv-x="1238" d="M100 350v874q0 275 341 275q116 0 204 -83l152 83q341 0 341 -295h-200q0 120 -141 120h-78q42 -67 75 -180h-250q30 180 -105 180q-139 0 -139 -100v-297q74 68 175 68h202q373 0 373 -375v-270q0 -375 -375 -375h-200q-375 0 -375 375zM300 350q0 -199 175 -199h200 q175 0 175 199v270q0 200 -175 200h-200q-175 0 -175 -200v-270z" />
<glyph unicode="&#x10bd;" horiz-adv-x="1195" d="M100 349l40 267h200l-40 -267q0 -199 175 -199h200q175 0 175 199l-64 908h-251q-173 0 -175 -146q0 -150 175 -150h270v-175h-272q-373 0 -373 325q2 321 373 321h241l-4 68h200l4 -68h121v-175h-109l64 -908q0 -375 -375 -375h-200q-375 0 -375 375z" />
<glyph unicode="&#x10be;" d="M100 350v1150h200v-425h375q375 0 375 -375v-350q0 -375 -375 -375h-200q-375 0 -375 375zM300 350q0 -199 175 -199h200q175 0 175 199v350q0 200 -175 200h-375v-550z" />
<glyph unicode="&#x10bf;" d="M100 349l30 343h200l-30 -343q0 -199 175 -199h200q175 0 175 199v313q0 200 -175 200h-235l5 364l-285 -5v175l285 -5l-5 108h200l-5 -108l305 5v-175l-305 5l5 -189h35q375 0 375 -375v-313q0 -375 -375 -375h-200q-375 0 -375 375z" />
<glyph unicode="&#x10c0;" d="M100 350l10 140h200l-10 -140q0 -199 175 -199h210v-1q165 5 165 189q0 158 -185 158h-195v175h205q165 0 165 128q0 109 -185 110h-195v175h202v-2h3v2q165 0 165 130q0 109 -213 110v-1h-350v176h348q415 0 415 -285q0 -136 -109 -212q119 -72 119 -203 q0 -141 -112 -218q122 -84 122 -243q0 -365 -375 -365v1h-200q-375 0 -375 375z" />
<glyph unicode="&#x10d0;" d="M100 350l20 270h200l-20 -270q0 -200 175 -200h200q175 0 175 200v260q0 200 -175 200h-30q-300 0 -300 325h200q0 -150 98 -150h32q375 0 375 -375v-260q0 -375 -375 -375h-200q-375 0 -375 375z" />
<glyph unicode="&#x10d1;" d="M100 350v300q0 375 373 375h15l20 123q0 100 -100 146.5t-100 205.5h231q1 -77 85 -142t74 -210l-10 -123q362 -7 362 -375v-300q0 -375 -375 -375h-200q-375 0 -375 375zM300 350q0 -199 175 -199h200q175 0 175 199v300q0 200 -175 200h-200q-175 0 -175 -200v-300z " />
<glyph unicode="&#x10d2;" horiz-adv-x="1230" d="M100 -58v218q0 375 373 375h267v116q0 200 -170 200t-170 -150h-200q0 325 370 325t370 -375v-147q190 -77 190 -344v-218q0 -375 -375 -375h-280q-375 0 -375 375zM300 -58q0 -199 175 -199h280q175 0 175 199v218q0 200 -175 200h-280q-175 0 -175 -200v-218z" />
<glyph unicode="&#x10d3;" horiz-adv-x="1790" d="M100 382v268q0 375 375 375h92q179 0 273 -123q94 123 275 123h202q373 0 373 -375v-280q0 -375 -375 -375h-200q-375 0 -375 375v280q0 200 -175 200h-90q-175 0 -175 -200v-268q0 -263 362 -567l313 18q425 10 425 -265h-200q0 100 -225 90l-747 -40l-2 175l177 10 q-303 311 -303 579zM940 370q0 -199 175 -199h200q175 0 175 199v280q0 200 -175 200h-200q-175 0 -175 -200v-280z" />
<glyph unicode="&#x10d4;" d="M100 -58l30 247h200l-30 -247q0 -199 175 -199h200q175 0 175 199v708q0 200 -175 200h-140q-175 0 -175 -200l10 -161h-200l-10 161q0 375 373 375h142q375 0 375 -375v-708q0 -375 -375 -375h-200q-375 0 -375 375z" />
<glyph unicode="&#x10d5;" d="M100 -58l20 209h200l-20 -209q0 -199 175 -199h200q175 0 175 199v108q0 200 -175 200h-200v175h200q155 0 155 200v26q0 200 -175 200h-140q-175 0 -175 -200l10 -72h-200l-10 72q0 375 373 375h142q375 0 375 -375v-26q0 -185 -131 -278q151 -93 151 -297v-108 q0 -375 -375 -375h-200q-375 0 -375 375z" />
<glyph unicode="&#x10d6;" horiz-adv-x="1310" d="M100 1025v99q0 375 373 375h42q395 -10 405 -385v-60q-2 -19 -4 -37q294 -46 294 -357v-310q0 -375 -375 -375h-200q-375 0 -375 375v271q0 34 8 70q-168 83 -168 334zM300 1025q0 -219 175 -219h70q175 -1 175 248v60q-10 200 -205 210h-40q-175 0 -175 -200v-99z M460 350q0 -199 175 -199h200q175 0 175 199v310q0 157 -140 184q-89 -188 -325 -194h-70h-14q-1 -14 -1 -29v-271z" />
<glyph unicode="&#x10d7;" horiz-adv-x="1820" d="M100 350v300q0 375 373 375h202q180 0 274 -123q94 123 274 123h122q375 0 375 -375v-300q0 -345 -394 -375l-1 176q195 30 195 199v300q0 200 -175 200h-120q-162 0 -183 -138q5 -30 8 -62v-300q0 -375 -375 -375h-200q-375 0 -375 375zM300 350q0 -199 175 -199h200 q175 0 175 199v300q0 200 -175 200h-200q-175 0 -175 -200v-300z" />
<glyph unicode="&#x10d8;" d="M100 350v300q0 375 373 375h202q375 0 375 -375v-300q0 -325 -355 -375v176q155 24 155 199v300q0 200 -175 200h-200q-175 0 -175 -200v-300q0 -175 155 -199v-176q-355 50 -355 375z" />
<glyph unicode="&#x10d9;" d="M100 -58l30 228h200l-30 -228q0 -199 175 -199h200q175 0 175 199v108q0 200 -180 200h-185v175h190q155 0 155 210v26q-20 170 -225 190v175q405 -20 425 -365v-26q0 -192 -130 -289q150 -94 150 -296v-108q0 -375 -375 -375h-200q-375 0 -375 375z" />
<glyph unicode="&#x10da;" horiz-adv-x="2300" d="M100 390v260q0 375 373 375h102q180 0 275 -123q94 123 273 123h52q178 0 272 -120q94 120 278 120h102q373 0 373 -375v-210q0 -345 -355 -415v176q155 70 155 239v210q0 200 -175 200h-100q-175 0 -175 -200v-310h-200v310q0 200 -175 200h-50q-175 0 -175 -200v-310 h-200v310q0 200 -175 200h-100q-175 0 -175 -200v-260q0 -230 476 -572l529 15q435 10 435 -265h-200q0 100 -235 90l-1037 -30v175l207 6q-375 300 -375 581z" />
<glyph unicode="&#x10db;" d="M100 350v300q0 375 373 375h202q101 0 175 -48v177q0 170 -165 170h-226q-135 0 -135 -170h-200q0 345 333 345h228q365 0 365 -345v-486v-18v-300q0 -375 -375 -375h-200q-375 0 -375 375zM300 350q0 -199 175 -199h200q175 0 175 199v300q0 200 -175 200h-200 q-175 0 -175 -200v-300z" />
<glyph unicode="&#x10dc;" d="M100 350v300v18v508q0 315 355 315l495 -1v-175l-495 1q-155 0 -155 -140v-198q73 47 173 47h202q375 0 375 -375v-300q0 -375 -375 -375h-200q-375 0 -375 375zM300 350q0 -199 175 -199h200q175 0 175 199v300q0 200 -175 200h-200q-175 0 -175 -200v-300z" />
<glyph unicode="&#x10dd;" horiz-adv-x="1710" d="M100 350v300q0 375 373 375h112q180 0 275 -123q94 123 275 123h102q373 0 373 -375v-300q0 -345 -415 -375v176q215 30 215 199v300q0 200 -175 200h-100q-175 0 -175 -190v-260h-200v260q0 190 -175 190h-110q-175 0 -175 -200v-300q0 -169 215 -199v-176 q-415 30 -415 375z" />
<glyph unicode="&#x10de;" d="M100 350l30 300h200l-30 -300q0 -199 175 -199h200q175 0 175 199v251q0 203 -155 202l-220 -2l-2 175l222 2q155 0 155 146q0 140 -175 140v1l-90 1q-300 0 -300 235h200q0 -60 98 -60l94 -1v-1q373 -1 373 -315q0 -161 -134 -243q134 -96 134 -280v-251 q0 -375 -375 -375h-200q-375 0 -375 375z" />
<glyph unicode="&#x10df;" d="M100 -58l20 197h200l-20 -197q0 -199 175 -199h200q175 0 175 199v908l-175 -11v-169q0 -345 -355 -345h-200v176h200q155 0 155 169v156l-255 -16v175l830 40v-1083q0 -375 -375 -375h-200q-375 0 -375 375z" />
<glyph unicode="&#x10e0;" horiz-adv-x="1710" d="M100 350v300q0 241 154 327q-54 76 -54 197v11q0 305 373 305h632v-175h-630q-175 0 -175 -130v-11q0 -149 185 -149q180 0 275 -123q94 123 275 123h102q373 0 373 -375v-300q0 -345 -375 -375v176q175 30 175 199v300q0 200 -175 200h-100q-175 0 -175 -190v-260h-200 v260q0 190 -175 190h-110q-175 0 -175 -200v-300q0 -169 175 -199v-176q-375 30 -375 375z" />
<glyph unicode="&#x10e1;" d="M100 350v1150h200v-1150q0 -199 175 -199h200q175 0 175 199v160q0 185 -43 199q-255 30 -255 385h200q0 -186 53 -209q245 -20 245 -375v-160q0 -375 -375 -375h-200q-375 0 -375 375z" />
<glyph unicode="&#x10e2;" horiz-adv-x="1343" d="M100 -57v677q0 375 373 375h103v210h180v-210h112q375 0 375 -375v-677q0 -375 -375 -375h-393q-375 0 -375 375zM300 -57q0 -199 175 -199h393q175 0 175 199v677q0 200 -175 200h-112v-635h-180v635h-101q-175 0 -175 -200v-677z" />
<glyph unicode="&#x10e3;" d="M100 -58l20 267h200l-20 -267q0 -199 175 -199h200q175 0 175 199v708q0 200 -125 200q-123 0 -123 -180v-271h-200v271q0 180 -175 180h-125v175h125q169 0 264 -122q81 122 234 122q325 0 325 -375v-708q0 -375 -375 -375h-200q-375 0 -375 375z" />
<glyph unicode="&#x10e4;" horiz-adv-x="1800" d="M100 405v245q0 375 373 375h202q180 0 274 -123q94 123 274 123h102q375 0 375 -375v-120q0 -199 -129 -291q109 -93 109 -276v-20q0 -370 -375 -377h-475h3q-380 0 -380 295h200q0 -119 177 -118h475q175 1 175 200v20q0 180 -149 199l-191 1v174h185v1q175 6 175 192 v120q0 200 -175 200h-100q-162 0 -183 -138q5 -30 8 -62v-245q0 -375 -375 -375h-200q-375 0 -375 375zM300 405q0 -199 175 -199h200q175 0 175 199v245q0 200 -175 200h-200q-175 0 -175 -200v-245z" />
<glyph unicode="&#x10e5;" d="M100 -58l20 207h200l-20 -207q0 -199 175 -199h200q175 0 175 199v632q-7 276 -275 276h-50q-175 0 -175 -200l10 -171h-200l-10 171q0 375 373 375h52q167 0 275 -78v553h200v-1558q0 -375 -375 -375h-200q-375 0 -375 375z" />
<glyph unicode="&#x10e6;" horiz-adv-x="1700" d="M100 400v250q0 375 373 375h102q180 0 275 -123q94 123 275 123h102q373 0 373 -375v-200q0 -355 -365 -425v176q165 70 165 249v200q0 200 -175 200h-100q-175 0 -175 -180v-270h-200v270q0 180 -175 180h-100q-175 0 -175 -200v-250q0 -296 408 -576l207 9 q405 10 405 -265h-200q0 100 -205 90l-707 -30l-2 175l228 10q-334 279 -334 587z" />
<glyph unicode="&#x10e7;" d="M100 -58l10 87h200l-10 -87q0 -199 175 -199h200q175 0 175 199v273q-102 -62 -255 -62h-10q-455 0 -455 375v84h1v-1q1 391 375 411v-175q-175 -20 -176 -240v-79q0 -199 255 -199h10q255 0 255 199v476h200v-1062q0 -375 -375 -375h-200q-375 0 -375 375z" />
<glyph unicode="&#x10e8;" horiz-adv-x="1238" d="M100 1174q0 325 341 325l158 -86q84 86 198 86q341 0 341 -295v-566v-18v-270q0 -375 -375 -375h-200q-375 0 -375 375v270q0 375 373 375h202q101 0 175 -48v257q0 120 -139 120q-135 0 -115 -190h-230q33 112 79 190h-92q-141 0 -141 -150h-200zM388 350 q0 -199 175 -199h200q175 0 175 199v270q0 200 -175 200h-200q-175 0 -175 -200v-270z" />
<glyph unicode="&#x10e9;" d="M100 -10v1136q0 375 355 375q403 1 403 -310q-4 -112 -71 -187q263 -68 263 -354v-250q0 -375 -385 -435v186q185 50 185 249v250q0 200 -175 200h-202q-173 -1 -173 -200v-660h-200zM300 978q73 47 173 47q205 0 185 166q0 133 -203 135q-155 0 -155 -200v-148z" />
<glyph unicode="&#x10ea;" horiz-adv-x="1230" d="M100 -58v1053h200v-1053q0 -199 175 -199h280q175 0 175 199v78q0 200 -155 200h-260v175h240v1q155 0 155 162q0 132 -74 152q-245 20 -245 315h200q0 -119 44 -140v1q265 -20 275 -328q0 -162 -106 -246q126 -94 126 -292v-78q0 -375 -375 -375h-280q-375 0 -375 375z " />
<glyph unicode="&#x10eb;" d="M100 350v300q0 375 375 375h375v475h200v-1150q0 -375 -375 -375h-200q-375 0 -375 375zM300 350q0 -199 175 -199h200q175 0 175 199v500h-375q-175 0 -175 -200v-300z" />
<glyph unicode="&#x10ec;" horiz-adv-x="1238" d="M100 350v270v18v566q0 295 341 295q112 0 195 -84l161 84q341 0 341 -325h-200q0 150 -141 150h-92q45 -78 79 -190h-230q20 190 -115 190q-139 0 -139 -120v-277q74 68 175 68h202q373 0 373 -375v-270q0 -375 -375 -375h-200q-375 0 -375 375zM300 350q0 -199 175 -199 h200q175 0 175 199v270q0 200 -175 200h-200q-175 0 -175 -200v-270z" />
<glyph unicode="&#x10ed;" horiz-adv-x="1195" d="M100 -58l30 237h200l-30 -237q0 -199 175 -199h200q175 0 175 199l-47 908h-268q-172 0 -175 -145q0 -150 175 -150h270v-175h-272q-373 0 -373 325q3 320 373 320h261l-24 475h200l24 -475h101v-175h-92l47 -908q0 -375 -375 -375h-200q-375 0 -375 375z" />
<glyph unicode="&#x10ee;" d="M100 350v1150h200v-475h375q375 0 375 -375v-300q0 -375 -375 -375h-200q-375 0 -375 375zM300 350q0 -199 175 -199h200q175 0 175 199v300q0 200 -175 200h-375v-500z" />
<glyph unicode="&#x10ef;" d="M100 -59l20 240h200l-20 -240q0 -199 175 -199h200q175 0 175 199v190q0 200 -175 200h-235v439h-290v175h290v201h200v-201h300v-175h-300v-264h35q375 0 375 -375v-190q0 -375 -375 -375h-200q-375 0 -375 375z" />
<glyph unicode="&#x10f0;" horiz-adv-x="1130" d="M100 350l10 80h200l-10 -80q0 -199 175 -199h190v-1q165 5 165 179q0 148 -165 148h-232v175h233q154 1 154 118q0 99 -165 99h-223v175h233v-1q145 0 145 119q0 101 -175 100q-370 3 -370 239h200q0 -63 170 -64q375 0 375 -275q0 -127 -106 -200q116 -68 116 -192 q0 -134 -109 -208q119 -82 119 -233q0 -355 -375 -355v1h-180q-375 0 -375 375z" />
<glyph unicode="&#x2000;" horiz-adv-x="803" />
<glyph unicode="&#x2001;" horiz-adv-x="1607" />
<glyph unicode="&#x2002;" horiz-adv-x="803" />
<glyph unicode="&#x2003;" horiz-adv-x="1607" />
<glyph unicode="&#x2004;" horiz-adv-x="535" />
<glyph unicode="&#x2005;" horiz-adv-x="401" />
<glyph unicode="&#x2006;" horiz-adv-x="267" />
<glyph unicode="&#x2007;" horiz-adv-x="267" />
<glyph unicode="&#x2008;" horiz-adv-x="200" />
<glyph unicode="&#x2009;" horiz-adv-x="321" />
<glyph unicode="&#x200a;" horiz-adv-x="89" />
<glyph unicode="&#x2010;" horiz-adv-x="825" d="M121 472v175h583v-175h-583z" />
<glyph unicode="&#x2011;" horiz-adv-x="825" d="M121 472v175h583v-175h-583z" />
<glyph unicode="&#x2012;" horiz-adv-x="825" d="M121 472v175h583v-175h-583z" />
<glyph unicode="&#x2013;" horiz-adv-x="1024" d="M-6 488v140h1036v-140h-1036z" />
<glyph unicode="&#x2014;" horiz-adv-x="2048" d="M8 488v140h2032v-140h-2032z" />
<glyph unicode="&#x2018;" horiz-adv-x="664" d="M233 1052v262q0 84 51 128.5t147 44.5l-1 -122q-35 -4 -50 -15t-15 -36v-22h66v-240h-198z" />
<glyph unicode="&#x2019;" horiz-adv-x="664" d="M233 1052v122q35 3 50 14.5t15 36.5v22h-65v240h198v-262q0 -84 -51 -128.5t-147 -44.5z" />
<glyph unicode="&#x201a;" horiz-adv-x="664" d="M233 0v240h198v-262q0 -84 -51 -129t-147 -45v123q35 3 50 14.5t15 36.5v22h-65z" />
<glyph unicode="&#x201c;" horiz-adv-x="1006" d="M235 1052v262q0 84 51 128.5t148 44.5l-1 -122q-36 -4 -50.5 -15t-14.5 -36v-22h66v-240h-199zM570 1052v262q0 84 51.5 128.5t149.5 44.5l-1 -122q-38 -4 -53 -15t-15 -36v-22h69v-240h-201z" />
<glyph unicode="&#x201d;" horiz-adv-x="1006" d="M235 1052v122q36 4 51 15t15 36v22h-66v240h199v-262q0 -84 -51 -128.5t-148 -44.5zM570 1052v122q35 3 50 14.5t15 36.5v22h-65v240h199v-262q0 -84 -51 -128.5t-148 -44.5z" />
<glyph unicode="&#x201e;" horiz-adv-x="1006" d="M235 0v240h199v-262q0 -84 -51 -129t-148 -45v123q35 3 50.5 14.5t15.5 36.5v22h-66zM570 0v240h199v-262q0 -84 -51 -129t-148 -45v123q35 3 50 14.5t15 36.5v22h-65z" />
<glyph unicode="&#x2020;" horiz-adv-x="1024" d="M130 922v177h287v388h190v-388h287v-177h-287v-922h-190v922h-287z" />
<glyph unicode="&#x2021;" horiz-adv-x="1024" d="M130 333v176h287v472h-287v176h287v330h190v-330h287v-176h-287v-472h287v-176h-287v-333h-190v333h-287z" />
<glyph unicode="&#x2022;" horiz-adv-x="1208" d="M296 761q0 128 90 217q91 89 218 89t216 -90q90 -89 90 -216t-91 -218t-217 -91q-128 0 -217 91t-89 218z" />
<glyph unicode="&#x2026;" horiz-adv-x="2048" d="M113 0v250h208v-250h-208zM794 0v250h208v-250h-208zM1478 0v250h208v-250h-208z" />
<glyph unicode="&#x202f;" horiz-adv-x="321" />
<glyph unicode="&#x2039;" horiz-adv-x="631" d="M80 531l253 325h217l-256 -325l256 -324h-217z" />
<glyph unicode="&#x203a;" horiz-adv-x="631" d="M81 207l255 324q-29 37 -62 79l-66 84t-65.5 83.5t-61.5 78.5h216l253 -325l-253 -324h-216z" />
<glyph unicode="&#x205f;" horiz-adv-x="401" />
<glyph unicode="&#x20ac;" horiz-adv-x="1384" d="M29 520l53 158h131v137h-184l52 159h132v15q0 286 112 401t390 115h87q452 0 452 -465h-204q0 163 -61 221q-59 56 -213 56h-101q-149 0 -203 -60q-55 -61 -55 -245v-38h659l-52 -159h-607v-137h564l-53 -158h-511v-54q0 -172 54 -235q55 -61 204 -61h101q153 0 213 57 q61 58 61 270h204q0 -280 -110 -397q-109 -118 -342 -118h-87q-278 0 -390 115t-112 401v22h-184z" />
<glyph unicode="&#x2122;" horiz-adv-x="1706" d="M260 1359v94h457v-94h-167v-460h-119v460h-171zM802 899v554h146l148 -374q35 92 70 188t68 186h146v-554h-108v367q-35 -93 -69.5 -184.5t-69.5 -182.5h-75l-148 373v-373h-108z" />
<glyph unicode="&#x2212;" horiz-adv-x="1706" d="M251 546v134h1204v-134h-1204z" />
<glyph unicode="&#x2215;" horiz-adv-x="342" d="M-361 -18l867 1523h195l-865 -1523h-197z" />
<glyph unicode="&#x2219;" horiz-adv-x="692" d="M211 793q0 55 40 94q39 40 95 40t95 -40q40 -39 40 -94t-40 -94q-38 -39 -95 -39t-95 39q-40 39 -40 94z" />
<glyph unicode="&#x25fc;" horiz-adv-x="1065" d="M0 0v1065h1065v-1065h-1065z" />
</font>
</defs>
</svg>
