<?xml version="1.0" standalone="no"?>
<!DOCTYPE svg PUBLIC "-//W3C//DTD SVG 1.1//EN" "http://www.w3.org/Graphics/SVG/1.1/DTD/svg11.dtd" >
<svg xmlns="http://www.w3.org/2000/svg" xmlns:xlink="http://www.w3.org/1999/xlink" version="1.1">
<metadata></metadata>
<defs>
<font id="_bpg_gelregular" horiz-adv-x="1510" >
<font-face units-per-em="2048" ascent="1556" descent="-492" />
<missing-glyph horiz-adv-x="651" />
<glyph horiz-adv-x="0" />
<glyph unicode="&#xd;" horiz-adv-x="651" />
<glyph unicode=" "  horiz-adv-x="651" />
<glyph unicode="&#x09;" horiz-adv-x="651" />
<glyph unicode="&#xa0;" horiz-adv-x="651" />
<glyph unicode="A" horiz-adv-x="1886" d="M250 0l122 122h226q-67 43 -125 100q-69 69 -118.5 153t-77 181t-27.5 203t27.5 204.5t77 184t119 156t154.5 120.5q75 44 161 71v164l126 117v-253q48 6 98 6q47 0 93 -6v136l126 117v-279q25 -8 50 -18q127 -49 227.5 -135.5t167.5 -204.5t89 -255l-122 -120 q0 88 -22.5 170t-64 153t-99.5 129t-129 99q-47 27 -97 46v-472l-126 -131v637q-48 8 -98 8q-48 0 -93 -7v-507l-126 -131v605q-53 -19 -102 -48q-70 -41 -128 -99.5t-99.5 -129.5t-64 -153t-22.5 -170t22.5 -170t64 -153.5t99.5 -130t128.5 -100.5t151.5 -65 q63 -18 130 -22h678l-122 -122h-1275z" />
<glyph unicode="B" horiz-adv-x="1915" d="M250 0l158 158h175q-40 29 -76 64q-71 69 -122 153t-79 181t-28 203t27 204t77 183.5t119.5 156t153.5 120.5q70 41 148 67v154l161 151v-271q37 4 76 4q36 0 71 -3v119l162 151v-304q62 -20 118 -50q79 -41 146.5 -100t120 -131.5t87.5 -157t50 -177.5l-160 -158 q0 134 -47 252.5t-129 206.5q-80 86 -186 137v-436l-162 -167v651q-37 5 -76 5q-36 0 -71 -4v-485l-161 -167v609l-1 -1q-109 -47 -190.5 -128.5t-128.5 -191.5t-47 -235q0 -84 22 -161t62.5 -144.5t97 -123t125 -95t147.5 -61.5q61 -16 126 -20h688l-157 -158h-1297z" />
<glyph unicode="C" horiz-adv-x="1940" d="M250 0l192 192h129q-17 14 -33 29q-73 69 -125 153t-80.5 181t-28.5 203t27 204.5t77 184t119.5 155.5t153.5 120q63 37 134 62v145l196 181v-285q27 2 55 2q25 0 50 -2v104l196 181v-326q53 -19 103 -45q79 -42 146.5 -102t120 -133.5t88 -159.5t50.5 -180l-193 -192 q0 91 -20.5 175.5t-57 157.5t-88.5 133.5t-115 103.5q-16 11 -34 21v-397l-196 -203v666q-27 3 -55 3q-25 0 -50 -3v-463l-196 -203v611q-86 -43 -153 -110q-77 -77 -121.5 -180.5t-44.5 -221.5q0 -79 21.5 -151.5t60.5 -136t94 -115.5t122 -89.5t143 -58.5q58 -15 119 -19 h703l-192 -192h-1317z" />
<glyph unicode="D" horiz-adv-x="1722" d="M250 784q0 326 188 532q109 121 284 173v227l150 -1v-194q27 6 71 6q32 0 68 -2v192h150v-217q157 -44 260 -156q152 -159 181 -480l-198 -1q0 170 -104 340q-58 71 -139 115v-480l-150 1v519q-36 4 -68 4q-45 0 -71 -7v-518l-150 1v466q-82 -42 -129 -106 q-130 -160 -130 -414q0 -285 145.5 -452t384.5 -167h477v-166h-1103l-1 166h212q-328 231 -328 619z" />
<glyph unicode="E" horiz-adv-x="1740" d="M250 784q0 326 188 532q109 121 284 173v140l150 160v-268q27 6 71 6q32 0 68 -2v106l150 169v-300q160 -44 259 -154q161 -182 200 -405l-198 -191q0 283 -130 448q-55 74 -131 120v-405l-150 -159v604q-36 4 -68 4q-45 0 -71 -7v-448l-150 -159v556q-82 -42 -129 -106 q-130 -160 -130 -414q0 -285 155.5 -452t374.5 -167h563l-165 -166h-1127l159 166h155q-328 231 -328 619z" />
<glyph unicode="F" d="M250 747q0 169 42 306.5t119 235t185 150.5q42 20 87 32v166h76v-150q39 5 81 5q47 0 92 -7v152h75v-169q39 -12 75 -30q109 -53 183 -150t96 -178.5t29 -174.5l-86 -2q-8 86 -28 151t-81 152t-152 133q-18 9 -36 17v-451l-75 -1v473q-44 9 -92 9q-42 0 -81 -6v-475 l-76 -1v456q-120 -42 -203 -153q-132 -181 -132 -490q0 -154 39.5 -273t113.5 -210t165 -139q73 -39 159 -46h419v-79h-872l2 79h211q-83 50 -154 131q-87 101 -134 234.5t-47 302.5z" />
<glyph unicode="G" d="M250 747q0 169 42 306.5t119 235t185 150.5q42 20 87 32v116l76 108v-208q39 5 81 5q47 0 92 -7v102l75 108v-227q39 -12 75 -30q109 -53 183 -150t96 -178.5t29 -136.5l-81 -86q-8 86 -30.5 174t-83.5 175t-152 133q-18 9 -36 17v-451l-75 -79v551q-44 9 -92 9 q-42 0 -81 -6v-475l-76 -79v534q-120 -42 -203 -153q-132 -181 -132 -490q0 -154 39.5 -273t113.5 -210t165 -139q73 -39 159 -46h449l-64 -79h-882l76 79h181q-83 50 -154 131q-87 101 -134 234.5t-47 302.5z" />
<glyph unicode="H" horiz-adv-x="1698" d="M252 816v6q0 293 200 495q139 140 342 184v165h113v-148q41 3 84 3q32 0 66 -4v149h115v-168q47 -11 97 -27q157 -50 309 -247v-336h-113q-37 282 -159 404q-59 60 -134 90v-558h-115v587q-31 4 -63 4q-46 0 -87 -5v-586h-113v562q-120 -40 -191 -133 q-124 -162 -124 -432q0 -321 164 -500q135 -148 329 -173h500v-149h-1038v149h228q-108 48 -196 130q-214 200 -214 538z" />
<glyph unicode="I" horiz-adv-x="1752" d="M250 745q0 355 188 565q115 128 278 178v154h150v-125q37 3 76 3q44 0 86 -4v126h150v-158q154 -50 265 -174q189 -210 189 -565h-213q0 283 -129 447q-50 63 -112 101v-560h-150v616q-41 7 -86 7q-40 0 -76 -6v-617h-150v567q-69 -40 -123 -108q-130 -164 -130 -447 q0 -282 150 -431q125 -124 282 -144h570v-170h-507h-27h-612v170h177q-14 11 -27 23q-219 198 -219 552z" />
<glyph unicode="J" horiz-adv-x="1614" d="M250 735q0 352 170 560q105 129 254 178v151h131v-124q32 3 67 3q40 0 78 -4v125h130v-155q142 -50 244 -174q170 -208 170 -560h-192q0 281 -116 443q-47 65 -106 103v-558h-130v610q-38 7 -78 7q-35 0 -67 -5v-612h-131v564q-65 -40 -115 -109q-117 -162 -117 -443 q0 -279 128 -427t302 -148h498v-162h-1058v162h156l-29 29q-189 196 -189 546z" />
<glyph unicode="K" horiz-adv-x="1554" d="M250 735q0 349 159 549q106 134 263 178v148h80v-131q44 6 91 6q62 0 119 -10v135h80v-157q140 -48 235 -170q157 -201 157 -550h-106q0 316 -124 484q-65 89 -162 131v-561h-80v587q-56 12 -119 12q-48 0 -91 -7v-592h-80v571q-115 -40 -191 -142q-125 -170 -125 -483 q0 -314 124 -475.5t361 -161.5h406v-96h-406h-14h-468v96h151q-57 40 -103 96q-157 193 -157 543z" />
<glyph unicode="L" horiz-adv-x="1710" d="M256 985q13 100 52 178t100 134t138 89q70 30 140 48l-5 104h131l4 -80q44 5 88 5h12q59 0 120 -9l5 84h131l-6 -111q59 -17 121 -41q84 -33 145 -92t98 -133q38 -73 52 -157q8 -50 8 -100q0 -33 -4 -66l-31 -275h-155l30 281q5 48 5 90q0 26 -2 50q-5 62 -25.5 111.5 t-56.5 87t-89 66.5q-49 27 -100 44l10 -656h-131l-10 690q-57 8 -112 8h-12q-44 -1 -86 -7l-9 -691h-131l9 658q-51 -18 -95 -44q-45 -26 -85.5 -66t-67.5 -99q-26 -58 -35 -138q-3 -28 -3 -58q0 -58 11 -126l77 -477q9 -54 20.5 -86.5t36 -50.5t66 -24t109.5 -7l629 -10 v-140l-629 19q-123 0 -194.5 15t-110.5 50t-55.5 92t-28.5 142l-74 477q-10 70 -10 133q0 46 5 88z" />
<glyph unicode="M" horiz-adv-x="2070" d="M250 797v309q0 375 373 375h167v138h200v-138h220v138h200v-138h167q373 0 373 -375v-189q0 -237 -173 -345l-121 152q94 66 94 193v189q0 200 -175 200h-165v-559h-200v559h-220v-559h-200v559h-165q-175 0 -175 -200v-309q0 -255 505 -577h420q375 0 375 -245h-200 q0 70 -175 70h-947v175h214q-392 293 -392 577z" />
<glyph unicode="N" horiz-adv-x="1970" d="M250 1226q0 255 273 255h237v135h200v-135h200v135h200v-135h207q283 0 283 -255l-30 -499h-200l30 499q0 80 -85 80h-205v-589h-200v589h-200v-589h-200v589h-235q-75 0 -75 -80l10 -499q0 -205 475 -532h745v-176h-1272v176h227q-375 298 -375 482z" />
<glyph unicode="O" horiz-adv-x="1651" d="M250 1236q0 270 281 270h119v118h168v-118h152v118h168v-118h97q296 0 296 -270v-359q0 -170 -92 -270l-145 82q68 77 68 195v312q0 150 -157 150h-67v-606h-168v606h-152v-606h-168v606h-79q-149 0 -149 -150l30 -907q1 -118 149 -118h751v-161h-791q-281 0 -281 239z " />
<glyph unicode="P" horiz-adv-x="1651" d="M250 1236q0 270 281 270h119v118h168v-118h152v118h168v-118h97q296 0 296 -270v-389q0 -170 -92 -270l-145 82q68 77 68 195v342q0 150 -157 150h-67v-646h-168v646h-152v-646h-168v646h-79q-149 0 -149 -150l10 -617q1 -202 207 -408h713v-161h-1081v161h147 q-158 202 -158 368z" />
<glyph unicode="a" horiz-adv-x="1886" d="M250 0l122 122h226q-67 43 -125 100q-69 69 -118.5 153t-77 181t-27.5 203t27.5 204.5t77 184t119 156t154.5 120.5q75 44 161 71v164l126 117v-253q48 6 98 6q47 0 93 -6v136l126 117v-279q25 -8 50 -18q127 -49 227.5 -135.5t167.5 -204.5t89 -255l-122 -120 q0 88 -22.5 170t-64 153t-99.5 129t-129 99q-47 27 -97 46v-472l-126 -131v637q-48 8 -98 8q-48 0 -93 -7v-507l-126 -131v605q-53 -19 -102 -48q-70 -41 -128 -99.5t-99.5 -129.5t-64 -153t-22.5 -170t22.5 -170t64 -153.5t99.5 -130t128.5 -100.5t151.5 -65 q63 -18 130 -22h678l-122 -122h-1275z" />
<glyph unicode="b" horiz-adv-x="1915" d="M250 0l158 158h175q-40 29 -76 64q-71 69 -122 153t-79 181t-28 203t27 204t77 183.5t119.5 156t153.5 120.5q70 41 148 67v154l161 151v-271q37 4 76 4q36 0 71 -3v119l162 151v-304q62 -20 118 -50q79 -41 146.5 -100t120 -131.5t87.5 -157t50 -177.5l-160 -158 q0 134 -47 252.5t-129 206.5q-80 86 -186 137v-436l-162 -167v651q-37 5 -76 5q-36 0 -71 -4v-485l-161 -167v609l-1 -1q-109 -47 -190.5 -128.5t-128.5 -191.5t-47 -235q0 -84 22 -161t62.5 -144.5t97 -123t125 -95t147.5 -61.5q61 -16 126 -20h688l-157 -158h-1297z" />
<glyph unicode="c" horiz-adv-x="1940" d="M250 0l192 192h129q-17 14 -33 29q-73 69 -125 153t-80.5 181t-28.5 203t27 204.5t77 184t119.5 155.5t153.5 120q63 37 134 62v145l196 181v-285q27 2 55 2q25 0 50 -2v104l196 181v-326q53 -19 103 -45q79 -42 146.5 -102t120 -133.5t88 -159.5t50.5 -180l-193 -192 q0 91 -20.5 175.5t-57 157.5t-88.5 133.5t-115 103.5q-16 11 -34 21v-397l-196 -203v666q-27 3 -55 3q-25 0 -50 -3v-463l-196 -203v611q-86 -43 -153 -110q-77 -77 -121.5 -180.5t-44.5 -221.5q0 -79 21.5 -151.5t60.5 -136t94 -115.5t122 -89.5t143 -58.5q58 -15 119 -19 h703l-192 -192h-1317z" />
<glyph unicode="d" horiz-adv-x="1722" d="M250 784q0 326 188 532q109 121 284 173v227l150 -1v-194q27 6 71 6q32 0 68 -2v192h150v-217q157 -44 260 -156q152 -159 181 -480l-198 -1q0 170 -104 340q-58 71 -139 115v-480l-150 1v519q-36 4 -68 4q-45 0 -71 -7v-518l-150 1v466q-82 -42 -129 -106 q-130 -160 -130 -414q0 -285 145.5 -452t384.5 -167h477v-166h-1103l-1 166h212q-328 231 -328 619z" />
<glyph unicode="e" horiz-adv-x="1740" d="M250 784q0 326 188 532q109 121 284 173v140l150 160v-268q27 6 71 6q32 0 68 -2v106l150 169v-300q160 -44 259 -154q161 -182 200 -405l-198 -191q0 283 -130 448q-55 74 -131 120v-405l-150 -159v604q-36 4 -68 4q-45 0 -71 -7v-448l-150 -159v556q-82 -42 -129 -106 q-130 -160 -130 -414q0 -285 155.5 -452t374.5 -167h563l-165 -166h-1127l159 166h155q-328 231 -328 619z" />
<glyph unicode="f" d="M250 747q0 169 42 306.5t119 235t185 150.5q42 20 87 32v166h76v-150q39 5 81 5q47 0 92 -7v152h75v-169q39 -12 75 -30q109 -53 183 -150t96 -178.5t29 -174.5l-86 -2q-8 86 -28 151t-81 152t-152 133q-18 9 -36 17v-451l-75 -1v473q-44 9 -92 9q-42 0 -81 -6v-475 l-76 -1v456q-120 -42 -203 -153q-132 -181 -132 -490q0 -154 39.5 -273t113.5 -210t165 -139q73 -39 159 -46h419v-79h-872l2 79h211q-83 50 -154 131q-87 101 -134 234.5t-47 302.5z" />
<glyph unicode="g" d="M250 747q0 169 42 306.5t119 235t185 150.5q42 20 87 32v116l76 108v-208q39 5 81 5q47 0 92 -7v102l75 108v-227q39 -12 75 -30q109 -53 183 -150t96 -178.5t29 -136.5l-81 -86q-8 86 -30.5 174t-83.5 175t-152 133q-18 9 -36 17v-451l-75 -79v551q-44 9 -92 9 q-42 0 -81 -6v-475l-76 -79v534q-120 -42 -203 -153q-132 -181 -132 -490q0 -154 39.5 -273t113.5 -210t165 -139q73 -39 159 -46h449l-64 -79h-882l76 79h181q-83 50 -154 131q-87 101 -134 234.5t-47 302.5z" />
<glyph unicode="h" horiz-adv-x="1698" d="M252 816v6q0 293 200 495q139 140 342 184v165h113v-148q41 3 84 3q32 0 66 -4v149h115v-168q47 -11 97 -27q157 -50 309 -247v-336h-113q-37 282 -159 404q-59 60 -134 90v-558h-115v587q-31 4 -63 4q-46 0 -87 -5v-586h-113v562q-120 -40 -191 -133 q-124 -162 -124 -432q0 -321 164 -500q135 -148 329 -173h500v-149h-1038v149h228q-108 48 -196 130q-214 200 -214 538z" />
<glyph unicode="i" horiz-adv-x="1752" d="M250 745q0 355 188 565q115 128 278 178v154h150v-125q37 3 76 3q44 0 86 -4v126h150v-158q154 -50 265 -174q189 -210 189 -565h-213q0 283 -129 447q-50 63 -112 101v-560h-150v616q-41 7 -86 7q-40 0 -76 -6v-617h-150v567q-69 -40 -123 -108q-130 -164 -130 -447 q0 -282 150 -431q125 -124 282 -144h570v-170h-507h-27h-612v170h177q-14 11 -27 23q-219 198 -219 552z" />
<glyph unicode="j" horiz-adv-x="1614" d="M250 735q0 352 170 560q105 129 254 178v151h131v-124q32 3 67 3q40 0 78 -4v125h130v-155q142 -50 244 -174q170 -208 170 -560h-192q0 281 -116 443q-47 65 -106 103v-558h-130v610q-38 7 -78 7q-35 0 -67 -5v-612h-131v564q-65 -40 -115 -109q-117 -162 -117 -443 q0 -279 128 -427t302 -148h498v-162h-1058v162h156l-29 29q-189 196 -189 546z" />
<glyph unicode="k" horiz-adv-x="1554" d="M250 735q0 349 159 549q106 134 263 178v148h80v-131q44 6 91 6q62 0 119 -10v135h80v-157q140 -48 235 -170q157 -201 157 -550h-106q0 316 -124 484q-65 89 -162 131v-561h-80v587q-56 12 -119 12q-48 0 -91 -7v-592h-80v571q-115 -40 -191 -142q-125 -170 -125 -483 q0 -314 124 -475.5t361 -161.5h406v-96h-406h-14h-468v96h151q-57 40 -103 96q-157 193 -157 543z" />
<glyph unicode="l" horiz-adv-x="1710" d="M256 985q13 100 52 178t100 134t138 89q70 30 140 48l-5 104h131l4 -80q44 5 88 5h12q59 0 120 -9l5 84h131l-6 -111q59 -17 121 -41q84 -33 145 -92t98 -133q38 -73 52 -157q8 -50 8 -100q0 -33 -4 -66l-31 -275h-155l30 281q5 48 5 90q0 26 -2 50q-5 62 -25.5 111.5 t-56.5 87t-89 66.5q-49 27 -100 44l10 -656h-131l-10 690q-57 8 -112 8h-12q-44 -1 -86 -7l-9 -691h-131l9 658q-51 -18 -95 -44q-45 -26 -85.5 -66t-67.5 -99q-26 -58 -35 -138q-3 -28 -3 -58q0 -58 11 -126l77 -477q9 -54 20.5 -86.5t36 -50.5t66 -24t109.5 -7l629 -10 v-140l-629 19q-123 0 -194.5 15t-110.5 50t-55.5 92t-28.5 142l-74 477q-10 70 -10 133q0 46 5 88z" />
<glyph unicode="m" horiz-adv-x="2070" d="M250 797v309q0 375 373 375h167v138h200v-138h220v138h200v-138h167q373 0 373 -375v-189q0 -237 -173 -345l-121 152q94 66 94 193v189q0 200 -175 200h-165v-559h-200v559h-220v-559h-200v559h-165q-175 0 -175 -200v-309q0 -255 505 -577h420q375 0 375 -245h-200 q0 70 -175 70h-947v175h214q-392 293 -392 577z" />
<glyph unicode="n" horiz-adv-x="1970" d="M250 1226q0 255 273 255h237v135h200v-135h200v135h200v-135h207q283 0 283 -255l-30 -499h-200l30 499q0 80 -85 80h-205v-589h-200v589h-200v-589h-200v589h-235q-75 0 -75 -80l10 -499q0 -205 475 -532h745v-176h-1272v176h227q-375 298 -375 482z" />
<glyph unicode="o" horiz-adv-x="1651" d="M250 1236q0 270 281 270h119v118h168v-118h152v118h168v-118h97q296 0 296 -270v-359q0 -170 -92 -270l-145 82q68 77 68 195v312q0 150 -157 150h-67v-606h-168v606h-152v-606h-168v606h-79q-149 0 -149 -150l30 -907q1 -118 149 -118h751v-161h-791q-281 0 -281 239z " />
<glyph unicode="p" horiz-adv-x="1651" d="M250 1236q0 270 281 270h119v118h168v-118h152v118h168v-118h97q296 0 296 -270v-389q0 -170 -92 -270l-145 82q68 77 68 195v342q0 150 -157 150h-67v-646h-168v646h-152v-646h-168v646h-79q-149 0 -149 -150l10 -617q1 -202 207 -408h713v-161h-1081v161h147 q-158 202 -158 368z" />
<glyph unicode="&#x2000;" horiz-adv-x="905" />
<glyph unicode="&#x2001;" horiz-adv-x="1810" />
<glyph unicode="&#x2002;" horiz-adv-x="905" />
<glyph unicode="&#x2003;" horiz-adv-x="1810" />
<glyph unicode="&#x2004;" horiz-adv-x="603" />
<glyph unicode="&#x2005;" horiz-adv-x="452" />
<glyph unicode="&#x2006;" horiz-adv-x="301" />
<glyph unicode="&#x2007;" horiz-adv-x="301" />
<glyph unicode="&#x2008;" horiz-adv-x="226" />
<glyph unicode="&#x2009;" horiz-adv-x="362" />
<glyph unicode="&#x200a;" horiz-adv-x="100" />
<glyph unicode="&#x202f;" horiz-adv-x="362" />
<glyph unicode="&#x205f;" horiz-adv-x="452" />
<glyph unicode="&#x25fc;" horiz-adv-x="1120" d="M0 0v1120h1120v-1120h-1120z" />
</font>
</defs>
</svg>
