<?xml version="1.0" standalone="no"?>
<!DOCTYPE svg PUBLIC "-//W3C//DTD SVG 1.1//EN" "http://www.w3.org/Graphics/SVG/1.1/DTD/svg11.dtd" >
<svg xmlns="http://www.w3.org/2000/svg" xmlns:xlink="http://www.w3.org/1999/xlink" version="1.1">
<metadata></metadata>
<defs>
<font id="bpg_phone_sansregular" horiz-adv-x="1075" >
<font-face units-per-em="2048" ascent="1556" descent="-492" />
<missing-glyph horiz-adv-x="684" />
<glyph unicode="&#xd;" horiz-adv-x="717" />
<glyph unicode=" "  horiz-adv-x="684" />
<glyph unicode="&#x09;" horiz-adv-x="684" />
<glyph unicode="&#xa0;" horiz-adv-x="684" />
<glyph unicode="!" horiz-adv-x="862" d="M324 0v266h215v-266h-215zM324 881v688h215v-688l-23 -375h-170z" />
<glyph unicode="&#x22;" horiz-adv-x="989" d="M207 985v584h178v-584h-178zM604 985v584h178v-584h-178z" />
<glyph unicode="#" horiz-adv-x="1802" d="M166 434v162h369l90 350h-338v162h379l106 434h170l-108 -434h305l110 434h168l-108 -434h327v-162h-368l-86 -350h334v-162h-375l-109 -434h-168l109 434h-307l-111 -434h-168l111 434h-332zM707 596h307l86 350h-305z" />
<glyph unicode="$" horiz-adv-x="1368" d="M178 96v191q109 -70 218.5 -103.5t226.5 -33.5v479q-234 37 -339.5 127t-105.5 248q0 172 115 270t330 112v248h104v-243q96 -5 188.5 -21t178.5 -45v-184q-86 45 -178.5 69.5t-188.5 26.5v-446q238 -37 350.5 -132.5t112.5 -259.5q0 -176 -120 -278.5t-343 -118.5v-317 h-104l-2 315q-111 2 -220.5 25.5t-222.5 70.5zM373 1022q0 -90 58 -140.5t192 -72.5v430q-123 -14 -186.5 -69.5t-63.5 -147.5zM727 152q133 18 200.5 76.5t67.5 152.5q0 90 -64.5 145.5t-203.5 79.5v-454z" />
<glyph unicode="%" horiz-adv-x="2044" d="M119 1169q0 197 97 311.5t263 114.5t265.5 -114.5t99.5 -311.5q0 -198 -98.5 -313t-266.5 -115q-166 0 -263 116t-97 312zM287 1169q0 -139 50 -215.5t142 -76.5t144.5 76.5t52.5 215.5q0 136 -53.5 214.5t-143.5 78.5t-141 -77.5t-51 -215.5zM446 -31l981 1626h168 l-981 -1626h-168zM1200 395q0 199 98.5 313.5t264.5 114.5t264 -115.5t98 -312.5q0 -196 -98 -311t-264 -115q-168 0 -265.5 115t-97.5 311zM1368 395q0 -137 52.5 -215t142.5 -78t142 78t52 215t-52 216t-142 79t-142.5 -77.5t-52.5 -217.5z" />
<glyph unicode="&#x26;" horiz-adv-x="1677" d="M135 483q0 135 70.5 253t212.5 222q-51 66 -78 131.5t-27 129.5q0 170 117 273t309 103q88 0 175 -18t176 -57v-191q-91 49 -173.5 75t-154.5 26q-111 0 -180.5 -57.5t-69.5 -151.5q0 -54 31.5 -108t128.5 -152l532 -545q62 92 96.5 198.5t40.5 227.5h195 q-10 -140 -65.5 -275t-151.5 -268l293 -299h-266l-150 154q-109 -93 -228.5 -139t-256.5 -46q-254 0 -415 144.5t-161 369.5zM338 498q0 -156 111.5 -257.5t279.5 -101.5q98 0 186.5 34t163.5 99l-557 572q-96 -86 -140 -170t-44 -176z" />
<glyph unicode="'" horiz-adv-x="592" d="M207 985v584h178v-584h-178z" />
<glyph unicode="(" horiz-adv-x="840" d="M184 676q0 233 78 470.5t238 485.5h168q-142 -241 -210.5 -477.5t-68.5 -478.5q0 -244 68.5 -481.5t210.5 -479.5h-168q-158 248 -237 486.5t-79 474.5z" />
<glyph unicode=")" horiz-adv-x="840" d="M172 -285q139 242 208 479.5t69 481.5q0 242 -69 478.5t-208 477.5h168q158 -248 235.5 -485.5t77.5 -470.5q0 -236 -77.5 -474.5t-235.5 -486.5h-168z" />
<glyph unicode="*" d="M63 901l377 205l-377 203l62 104l352 -213v395h121v-395l352 213l62 -104l-377 -203l377 -205l-62 -102l-352 213v-398h-121v398l-352 -213z" />
<glyph unicode="+" horiz-adv-x="1802" d="M227 586v178h586v584h176v-584h586v-178h-586v-586h-176v586h-586z" />
<glyph unicode="," horiz-adv-x="684" d="M166 -250l86 336v180h221v-180l-172 -336h-135z" />
<glyph unicode="-" horiz-adv-x="776" d="M104 504v172h568v-172h-568z" />
<glyph unicode="." horiz-adv-x="684" d="M229 0v266h222v-266h-222z" />
<glyph unicode="/" horiz-adv-x="725" d="M0 -201l547 1770h178l-547 -1770h-178z" />
<glyph unicode="0" horiz-adv-x="1368" d="M141 782q0 398 139.5 605.5t403.5 207.5q262 0 401.5 -207.5t139.5 -605.5q0 -397 -139.5 -605t-401.5 -208q-264 0 -403.5 208t-139.5 605zM354 782q0 -321 83 -483t247 -162t247 162t83 483q0 324 -83 484.5t-247 160.5t-247 -160.5t-83 -484.5z" />
<glyph unicode="1" horiz-adv-x="1368" d="M236 1298v195l374 76h213v-1391h346v-178h-903v178h346v1196z" />
<glyph unicode="2" horiz-adv-x="1368" d="M158 0v178q121 125 328.5 336t263.5 270q100 115 141 195t41 156q0 125 -88 203.5t-230 78.5q-98 0 -208.5 -34.5t-237.5 -104.5v215q129 49 239.5 75.5t202.5 26.5q244 0 389.5 -121.5t145.5 -324.5q0 -96 -37 -183t-131 -204q-27 -31 -167 -176.5t-396 -407.5h739v-178 h-995z" />
<glyph unicode="3" horiz-adv-x="1368" d="M164 47v205q88 -51 193.5 -78t217.5 -27q201 0 305.5 79t104.5 231q0 137 -97 216t-272 79h-182v174h193q155 0 238 62.5t83 178.5q0 121 -86 185.5t-246 64.5q-86 0 -185 -18.5t-220 -59.5v191q121 33 226.5 49t199.5 16q242 0 382 -109.5t140 -295.5q0 -131 -74.5 -220 t-212.5 -124q152 -33 238 -136.5t86 -252.5q0 -234 -159.5 -361t-452.5 -127q-101 0 -205.5 19.5t-214.5 58.5z" />
<glyph unicode="4" horiz-adv-x="1368" d="M104 371v202l654 996h266v-1022h223v-176h-223v-371h-211v371h-709zM276 547h537v835z" />
<glyph unicode="5" horiz-adv-x="1368" d="M166 37v213q94 -51 195.5 -77t211.5 -26q183 0 289.5 96.5t106.5 260.5t-106.5 259t-289.5 95q-84 0 -169 -19.5t-173 -58.5v789h834v-180h-639v-383q45 16 92 23t92 7q264 0 417 -143t153 -389q0 -254 -158 -394.5t-442 -140.5q-101 0 -203.5 16.5t-210.5 51.5z" />
<glyph unicode="6" horiz-adv-x="1368" d="M150 782q0 371 177 592t474 221q80 0 160.5 -15t168.5 -46v-195q-79 39 -160 58.5t-161 19.5q-211 0 -321.5 -141t-127.5 -428q64 90 157 139t206 49q235 0 372.5 -143t137.5 -389q0 -244 -143.5 -389.5t-378.5 -145.5q-273 0 -417 208t-144 605zM399 504 q0 -170 84 -268.5t228 -98.5q143 0 226 98.5t83 268.5t-83 267t-226 97q-144 0 -228 -97t-84 -267z" />
<glyph unicode="7" horiz-adv-x="1368" d="M176 1389v180h1008v-92l-570 -1477h-221l537 1389h-754z" />
<glyph unicode="8" horiz-adv-x="1368" d="M145 440q0 152 86 255.5t240 140.5q-135 32 -212 125.5t-77 228.5q0 188 134.5 296.5t367.5 108.5q234 0 367 -108.5t133 -296.5q0 -135 -76 -228.5t-211 -125.5q154 -37 239 -140.5t85 -255.5q0 -227 -139.5 -349t-397.5 -122q-260 0 -399.5 122t-139.5 349zM358 440 q0 -141 87 -222t239 -81t239 81t87 222q0 144 -87 223.5t-239 79.5t-239 -79.5t-87 -223.5zM393 1169q0 -120 77 -189t214 -69q135 0 213 69t78 189q0 121 -78 189.5t-213 68.5q-137 0 -214 -68.5t-77 -189.5z" />
<glyph unicode="9" horiz-adv-x="1368" d="M135 1063q0 242 143.5 387t378.5 145q273 0 416.5 -207.5t143.5 -605.5q0 -370 -176.5 -591.5t-473.5 -221.5q-80 0 -161.5 15.5t-169.5 48.5v192q79 -37 161 -57.5t162 -20.5q209 0 319.5 141.5t127.5 430.5q-62 -90 -155 -139.5t-206 -49.5q-235 0 -372.5 142.5 t-137.5 390.5zM348 1063q0 -170 84 -268.5t225 -98.5q144 0 228 98.5t84 268.5t-84 267t-228 97q-141 0 -225 -97t-84 -267z" />
<glyph unicode=":" horiz-adv-x="725" d="M252 0v266h221v-266h-221zM252 846v266h221v-266h-221z" />
<glyph unicode=";" horiz-adv-x="725" d="M166 -250l86 336v180h221v-180l-172 -336h-135zM252 846v266h221v-266h-221z" />
<glyph unicode="&#x3c;" horiz-adv-x="1802" d="M227 588v174l1348 487v-190l-1086 -385l1086 -383v-193z" />
<glyph unicode="=" horiz-adv-x="1802" d="M227 371v178h1348v-178h-1348zM227 801v176h1348v-176h-1348z" />
<glyph unicode="&#x3e;" horiz-adv-x="1802" d="M227 98v193l1082 383l-1082 385v190l1348 -487v-174z" />
<glyph unicode="?" horiz-adv-x="1141" d="M154 1280v197q100 59 201.5 88.5t207.5 29.5q195 0 311.5 -101t116.5 -269q0 -78 -38 -151t-132 -163l-92 -90q-49 -49 -69.5 -76.5t-28.5 -54.5q-6 -22 -10.5 -54t-4.5 -85v-129h-198v162q0 104 28.5 172.5t122.5 158.5l97 95q59 55 85.5 104t26.5 100q0 95 -69.5 152 t-182.5 57q-82 0 -176 -36.5t-196 -106.5zM412 0v266h213v-266h-213z" />
<glyph unicode="@" horiz-adv-x="2150" d="M141 569q0 193 72 366t205 304q135 133 312 203.5t376 70.5q221 0 411.5 -91t321.5 -259q78 -102 120 -223t42 -250q0 -276 -168 -436t-461 -166v162q-63 -80 -144 -119t-190 -39q-180 0 -292.5 131t-112.5 340q0 211 112.5 342t292.5 131q109 0 191 -39t143 -118v137 h150v-772q153 22 240 139t87 303q0 113 -32.5 211t-100.5 182q-110 138 -267 211.5t-341 73.5q-129 0 -248 -35t-221 -102q-164 -107 -256 -281t-92 -377q0 -166 60.5 -312t172.5 -257q111 -109 256.5 -166t309.5 -57q135 0 266 46t239 130l95 -117q-131 -102 -286 -156.5 t-314 -54.5q-195 0 -367 69.5t-305 201.5q-135 131 -206 304t-71 369zM801 563q0 -149 73.5 -234t204.5 -85q129 0 204 86t75 233q0 148 -77 235t-204 87t-201.5 -86t-74.5 -236z" />
<glyph unicode="A" horiz-adv-x="1470" d="M16 0l598 1569h242l596 -1569h-219l-143 401h-707l-143 -401h-224zM446 580h578l-289 780z" />
<glyph unicode="B" horiz-adv-x="1475" d="M211 0v1569h543q241 0 372 -101.5t131 -287.5q0 -144 -67.5 -229t-196.5 -105q158 -35 244 -141.5t86 -266.5q0 -209 -143.5 -323.5t-405.5 -114.5h-563zM424 174h340q170 0 253 70.5t83 218.5q0 145 -83 216t-253 71h-340v-576zM424 922h313q156 0 231.5 57t75.5 178 q0 119 -75.5 177.5t-231.5 58.5h-313v-471z" />
<glyph unicode="C" horiz-adv-x="1501" d="M121 782q0 377 204.5 595t561.5 218q139 0 264 -36.5t233 -110.5v-225q-106 100 -228 149t-257 49q-268 0 -411.5 -163.5t-143.5 -475.5q0 -311 143.5 -475t411.5 -164q135 0 257 50.5t228 148.5v-221q-110 -76 -235 -114t-262 -38q-357 0 -561.5 218.5t-204.5 594.5z " />
<glyph unicode="D" horiz-adv-x="1657" d="M211 0v1569h436q455 0 669 -189.5t214 -595.5q0 -403 -215 -593.5t-668 -190.5h-436zM424 174h256q324 0 474.5 147.5t150.5 462.5q0 316 -150.5 462.5t-474.5 146.5h-256v-1219z" />
<glyph unicode="E" horiz-adv-x="1360" d="M211 0v1569h991v-180h-778v-463h745v-178h-745v-570h797v-178h-1010z" />
<glyph unicode="F" horiz-adv-x="1237" d="M211 0v1569h901v-180h-688v-461h620v-178h-620v-750h-213z" />
<glyph unicode="G" horiz-adv-x="1665" d="M121 782q0 385 207 599t575 214q154 0 291 -37.5t256 -109.5v-227q-119 100 -251 150t-277 50q-289 0 -433.5 -160.5t-144.5 -478.5q0 -317 144.5 -478t433.5 -161q110 0 199 19.5t159 60.5v422h-346v174h557v-674q-125 -86 -272.5 -131t-315.5 -45q-368 0 -575 215 t-207 598z" />
<glyph unicode="H" horiz-adv-x="1618" d="M211 0v1569h213v-643h770v643h213v-1569h-213v748h-770v-748h-213z" />
<glyph unicode="I" horiz-adv-x="635" d="M211 0v1569h213v-1569h-213z" />
<glyph unicode="J" horiz-adv-x="635" d="M-111 -252h66q141 0 198.5 79t57.5 282v1460h213v-1460q0 -283 -107.5 -411t-347.5 -128h-80v178z" />
<glyph unicode="K" horiz-adv-x="1409" d="M211 0v1569h213v-664l702 664h275l-778 -731l831 -838h-278l-752 756v-756h-213z" />
<glyph unicode="L" horiz-adv-x="1198" d="M211 0v1569h213v-1391h762v-178h-975z" />
<glyph unicode="M" horiz-adv-x="1855" d="M211 0v1569h315l402 -1067l401 1067h316v-1569h-207v1376l-404 -1075h-213l-403 1075v-1376h-207z" />
<glyph unicode="N" horiz-adv-x="1610" d="M211 0v1569h287l694 -1313v1313h207v-1569h-287l-694 1311v-1311h-207z" />
<glyph unicode="O" horiz-adv-x="1694" d="M121 782q0 371 197.5 592t529.5 221q330 0 527.5 -221t197.5 -592q0 -370 -197.5 -591.5t-527.5 -221.5q-332 0 -529.5 221.5t-197.5 591.5zM344 782q0 -297 136 -469t368 -172q229 0 364.5 172t135.5 469t-135.5 469t-364.5 172q-232 0 -368 -172t-136 -469z" />
<glyph unicode="P" horiz-adv-x="1296" d="M211 0v1569h479q262 0 397.5 -120t135.5 -349q0 -234 -135.5 -351.5t-397.5 -117.5h-266v-631h-213zM424 805h266q148 0 228.5 76.5t80.5 218.5q0 139 -80.5 216t-228.5 77h-266v-588z" />
<glyph unicode="Q" horiz-adv-x="1694" d="M121 782q0 371 197.5 592t529.5 221q330 0 527.5 -221t197.5 -592q0 -272 -110.5 -466.5t-317.5 -286.5l278 -305h-256l-231 249q-35 -2 -53.5 -3t-34.5 -1q-332 0 -529.5 221.5t-197.5 591.5zM344 782q0 -297 136 -469t368 -172q229 0 364.5 172t135.5 469t-135.5 469 t-364.5 172q-232 0 -368 -172t-136 -469z" />
<glyph unicode="R" horiz-adv-x="1493" d="M211 0v1569h479q268 0 400.5 -113t132.5 -340q0 -147 -69 -245.5t-200 -135.5q70 -22 133.5 -98t129.5 -209l215 -428h-228l-200 401q-78 158 -151 210.5t-200 52.5h-229v-664h-213zM424 838h266q154 0 231.5 70.5t77.5 207.5t-77.5 207t-231.5 70h-266v-555z" />
<glyph unicode="S" horiz-adv-x="1366" d="M141 1149q0 209 146.5 327.5t404.5 118.5q111 0 224.5 -19.5t234.5 -59.5v-207q-121 57 -228.5 85.5t-205.5 28.5q-174 0 -268.5 -67.5t-94.5 -190.5q0 -102 62.5 -156.5t236.5 -84.5l129 -27q238 -45 350.5 -158.5t112.5 -306.5q0 -227 -152.5 -345t-447.5 -118 q-113 0 -237.5 25.5t-260.5 75.5v219q129 -74 253 -111t245 -37q180 0 279.5 72t99.5 205q0 114 -70.5 180t-232.5 96l-129 27q-238 47 -344.5 147.5t-106.5 280.5z" />
<glyph unicode="T" horiz-adv-x="1315" d="M-6 1389v180h1327v-180h-557v-1389h-213v1389h-557z" />
<glyph unicode="U" horiz-adv-x="1575" d="M186 590v979h213v-955q0 -252 92.5 -362.5t294.5 -110.5q205 0 296.5 110.5t91.5 362.5v955h212v-979q0 -307 -151.5 -464t-448.5 -157t-448.5 157t-151.5 464z" />
<glyph unicode="V" horiz-adv-x="1470" d="M16 1569h222l497 -1321l498 1321h219l-596 -1569h-242z" />
<glyph unicode="W" horiz-adv-x="2126" d="M72 1569h215l327 -1325l330 1325h238l329 -1325l330 1325h215l-393 -1569h-268l-330 1362l-334 -1362h-266z" />
<glyph unicode="X" horiz-adv-x="1473" d="M63 0l562 838l-490 731h227l392 -584l391 584h227l-504 -754l539 -815h-229l-441 668l-444 -668h-230z" />
<glyph unicode="Y" horiz-adv-x="1315" d="M-4 1569h227l434 -645l433 645h229l-555 -821v-748h-213v748z" />
<glyph unicode="Z" horiz-adv-x="1473" d="M96 0v162l991 1227h-966v180h1231v-162l-992 -1229h1016v-178h-1280z" />
<glyph unicode="[" horiz-adv-x="840" d="M184 -285v1919h447v-149h-252v-1618h252v-152h-447z" />
<glyph unicode="\" horiz-adv-x="725" d="M0 1569h178l547 -1770h-178z" />
<glyph unicode="]" horiz-adv-x="840" d="M209 -133h252v1618h-252v149h444v-1919h-444v152z" />
<glyph unicode="^" horiz-adv-x="1802" d="M227 983l572 586h205l571 -586h-211l-463 416l-463 -416h-211z" />
<glyph unicode="_" d="M-20 -356h1116v-152h-1116v152z" />
<glyph unicode="`" d="M178 1720h207l297 -393h-162z" />
<glyph unicode="a" horiz-adv-x="1319" d="M129 342q0 199 133 299t395 100h273v21q0 133 -88 205.5t-246 72.5q-100 0 -196.5 -24.5t-184.5 -71.5v178q107 41 206 61.5t193 20.5q256 0 382 -132t126 -400v-672h-192v178q-68 -106 -166 -157.5t-242 -51.5q-180 0 -286.5 101.5t-106.5 271.5zM322 354 q0 -102 68.5 -162.5t182.5 -60.5q162 0 259.5 113.5t97.5 304.5v43h-193q-233 0 -324 -54.5t-91 -183.5z" />
<glyph unicode="b" horiz-adv-x="1366" d="M195 0v1634h194v-637q62 105 155 156t222 51q215 0 348 -170t133 -446q0 -279 -133 -449t-348 -170q-129 0 -222 51.5t-155 155.5v-176h-194zM389 588q0 -213 88 -335t242 -122q151 0 239.5 122t88.5 335t-88.5 333.5t-239.5 120.5q-154 0 -242 -120.5t-88 -333.5z" />
<glyph unicode="c" horiz-adv-x="1182" d="M119 588q0 286 157.5 451t434.5 165q88 0 173 -18.5t165 -55.5v-180q-82 45 -164 67.5t-166 22.5q-189 0 -293 -118.5t-104 -333.5t104 -335t293 -120q84 0 166 22.5t164 67.5v-178q-80 -39 -167 -57.5t-186 -18.5q-264 0 -420.5 167t-156.5 452z" />
<glyph unicode="d" horiz-adv-x="1366" d="M119 588q0 276 133 446t348 170q129 0 222 -51t155 -156v637h192v-1634h-192v176q-62 -104 -155 -155.5t-222 -51.5q-215 0 -348 170t-133 449zM317 588q0 -213 88.5 -335t241.5 -122q154 0 242 122t88 335t-88 333.5t-242 120.5q-153 0 -241.5 -120.5t-88.5 -333.5z" />
<glyph unicode="e" horiz-adv-x="1323" d="M119 575q0 289 155.5 459t419.5 170q238 0 376 -152.5t138 -414.5v-94h-889q15 -201 122.5 -305.5t297.5 -104.5q113 0 217.5 27.5t206.5 83.5v-185q-104 -43 -212.5 -66.5t-221.5 -23.5q-283 0 -446.5 164t-163.5 442zM328 692h688q-2 160 -89 254t-231 94 q-161 0 -257.5 -91t-110.5 -257z" />
<glyph unicode="f" horiz-adv-x="758" d="M49 1026v150h184v81q0 197 92.5 287t288.5 90h185v-161h-187q-102 0 -143 -42t-41 -151v-104h320v-150h-320v-1026h-195v1026h-184z" />
<glyph unicode="g" horiz-adv-x="1366" d="M119 602q0 272 132 437t349 165q129 0 223.5 -51t153.5 -156v179h192v-1031q0 -299 -133 -445t-407 -146q-103 0 -194 14t-175 47v188q84 -47 168 -69.5t170 -22.5q188 0 283.5 100.5t95.5 299.5v96q-59 -105 -153.5 -156t-223.5 -51q-217 0 -349 165t-132 437zM317 602 q0 -209 87.5 -324.5t242.5 -115.5q156 0 243 115.5t87 324.5t-87 324.5t-243 115.5q-155 0 -242.5 -115.5t-87.5 -324.5z" />
<glyph unicode="h" horiz-adv-x="1364" d="M195 0v1634h194v-641q70 107 164 159t217 52q203 0 306.5 -126t103.5 -367v-711h-193v702q0 168 -65.5 251t-194.5 83q-158 0 -248 -99t-90 -271v-666h-194z" />
<glyph unicode="i" horiz-adv-x="598" d="M203 0v1176h192v-1176h-192zM203 1389v245h192v-245h-192z" />
<glyph unicode="j" horiz-adv-x="598" d="M-39 -285h51q111 0 151 51.5t40 213.5v1196h192v-1196q0 -226 -85 -326t-275 -100h-74v161zM203 1389v245h192v-245h-192z" />
<glyph unicode="k" horiz-adv-x="1245" d="M195 0v1634h194v-964l578 506h245l-622 -549l649 -627h-252l-598 573v-573h-194z" />
<glyph unicode="l" horiz-adv-x="598" d="M203 0v1634h192v-1634h-192z" />
<glyph unicode="m" horiz-adv-x="2095" d="M195 0v1176h194v-183q68 109 159 160t220 51q127 0 217 -65.5t133 -188.5q74 129 174.5 191.5t237.5 62.5q182 0 282.5 -129t100.5 -364v-711h-195v702q0 170 -60.5 252t-182.5 82q-150 0 -237 -99t-87 -271v-666h-195v702q0 172 -59 253t-184 81q-150 0 -237 -100 t-87 -270v-666h-194z" />
<glyph unicode="n" horiz-adv-x="1364" d="M195 0v1176h194v-183q70 107 164 159t217 52q203 0 306.5 -126t103.5 -367v-711h-193v702q0 168 -65.5 251t-194.5 83q-158 0 -248 -99t-90 -271v-666h-194z" />
<glyph unicode="o" horiz-adv-x="1317" d="M119 588q0 289 143.5 452.5t394.5 163.5q252 0 396.5 -163.5t144.5 -452.5t-144.5 -454t-396.5 -165q-251 0 -394.5 165t-143.5 454zM322 588q0 -211 90 -333t245 -122q156 0 246 122t90 333q0 209 -90 330.5t-246 121.5q-153 0 -244 -120.5t-91 -331.5z" />
<glyph unicode="p" horiz-adv-x="1366" d="M195 -446v1622h194v-179q62 105 155 156t222 51q215 0 348 -170t133 -446q0 -279 -133 -449t-348 -170q-129 0 -222 51.5t-155 155.5v-622h-194zM389 588q0 -213 88 -335t242 -122q151 0 239.5 122t88.5 335t-88.5 333.5t-239.5 120.5q-154 0 -242 -120.5t-88 -333.5z " />
<glyph unicode="q" horiz-adv-x="1366" d="M119 588q0 276 133 446t348 170q129 0 222 -51t155 -156v179h192v-1622h-192v622q-62 -104 -155 -155.5t-222 -51.5q-215 0 -348 170t-133 449zM317 588q0 -213 88.5 -335t241.5 -122q154 0 242 122t88 335t-88 333.5t-242 120.5q-153 0 -241.5 -120.5t-88.5 -333.5z" />
<glyph unicode="r" horiz-adv-x="885" d="M195 0v1176h194v-183q62 107 159 159t236 52q21 0 45.5 -3t53.5 -7l2 -199q-33 19 -72 28t-84 9q-164 0 -252 -106.5t-88 -307.5v-618h-194z" />
<glyph unicode="s" horiz-adv-x="1120" d="M117 43v201q106 -58 210.5 -85.5t204.5 -27.5q138 0 211.5 47t73.5 131q0 78 -53 120t-234 83l-65 14q-180 39 -260 117t-80 215q0 166 117.5 256t332.5 90q109 0 203 -15t174 -48v-183q-82 43 -170 63.5t-182 20.5q-143 0 -216 -44t-73 -132q0 -67 52.5 -105t205.5 -73 l68 -14q205 -45 292 -125t87 -225q0 -162 -130 -258.5t-358 -96.5q-94 0 -196.5 18.5t-214.5 55.5z" />
<glyph unicode="t" horiz-adv-x="844" d="M57 1026v150h142v333h194v-333h400v-150h-400v-639q0 -143 39 -184t162 -41h199v-162h-199q-223 0 -309 84t-86 303v639h-142z" />
<glyph unicode="u" horiz-adv-x="1364" d="M182 465v711h195v-705q0 -168 64.5 -251t195.5 -83q156 0 247 100.5t91 272.5v666h192v-1176h-192v180q-72 -106 -164 -158.5t-215 -52.5q-203 0 -308.5 126t-105.5 370z" />
<glyph unicode="v" horiz-adv-x="1274" d="M63 1176h205l369 -988l367 988h204l-440 -1176h-262z" />
<glyph unicode="w" horiz-adv-x="1759" d="M90 1176h193l241 -918l242 918h227l242 -918l240 918h192l-305 -1176h-229l-252 965l-254 -965h-230z" />
<glyph unicode="x" horiz-adv-x="1274" d="M61 0l457 614l-418 562h230l309 -418l313 418h228l-424 -572l446 -604h-227l-342 463l-342 -463h-230z" />
<glyph unicode="y" horiz-adv-x="1274" d="M63 1176h205l369 -920l367 920h204l-516 -1285q-82 -210 -159.5 -273.5t-208.5 -63.5h-154v159h113q79 0 123.5 38t99.5 179l35 88z" />
<glyph unicode="z" horiz-adv-x="1128" d="M92 0v176l727 846h-700v154h917v-177l-727 -845h727v-154h-944z" />
<glyph unicode="{" horiz-adv-x="1368" d="M268 567v152h66q149 0 205.5 60.5t56.5 215.5v252q0 232 88 309.5t350 77.5h66v-149h-72q-147 0 -192 -47t-45 -195v-260q0 -166 -48.5 -239.5t-162.5 -100.5q114 -29 162.5 -103.5t48.5 -238.5v-260q0 -147 45 -194.5t192 -47.5h72v-149h-66q-262 0 -350 77.5t-88 309.5 v252q0 157 -57.5 217.5t-204.5 60.5h-66z" />
<glyph unicode="|" horiz-adv-x="725" d="M272 -508v2150h179v-2150h-179z" />
<glyph unicode="}" horiz-adv-x="1368" d="M268 -201h74q147 0 192.5 46t45.5 196v260q0 164 47 238.5t164 103.5q-117 27 -164 100.5t-47 239.5v260q0 150 -45.5 196t-192.5 46h-74v149h68q260 0 348 -77.5t88 -309.5v-252q0 -155 56.5 -215.5t205.5 -60.5h66v-152h-66q-149 0 -205.5 -60.5t-56.5 -217.5v-252 q0 -232 -88 -309.5t-348 -77.5h-68v149z" />
<glyph unicode="~" horiz-adv-x="1802" d="M227 489v189q111 82 205 119t197 37q114 0 268 -64q10 -4 16 -6q9 -4 25 -8q162 -66 260 -66q90 0 179 40t198 128v-186q-111 -84 -205 -120t-196 -36q-115 0 -269 64q-10 4 -16 6q-8 2 -25 8q-162 63 -260 63q-92 0 -182 -39.5t-195 -128.5z" />
<glyph unicode="&#xa1;" horiz-adv-x="862" d="M324 0v688l22 375h170l23 -375v-688h-215zM324 1300v269h215v-269h-215z" />
<glyph unicode="&#xa4;" horiz-adv-x="1368" d="M98 207l217 217q-39 63 -58 125.5t-19 124.5q0 65 20.5 126.5t58.5 121.5l-217 215l121 120l217 -217q60 41 120 60.5t128 19.5q64 0 124 -18.5t126 -59.5l217 220l121 -121l-217 -215q39 -64 57.5 -126.5t18.5 -125.5q0 -68 -19.5 -128.5t-62.5 -119.5l219 -217 l-119 -119l-217 217q-64 -41 -124 -61.5t-124 -20.5q-61 0 -123.5 19.5t-128.5 58.5l-217 -217zM401 676q0 -121 83 -203t202 -82t201 82t82 203q0 117 -82 197.5t-201 80.5t-202 -80.5t-83 -197.5z" />
<glyph unicode="&#xa6;" horiz-adv-x="725" d="M272 -369v797h179v-797h-179zM272 709v794h179v-794h-179z" />
<glyph unicode="&#xa7;" d="M96 760q0 94 49.5 170t145.5 127q-64 45 -94.5 104.5t-30.5 130.5q0 138 105.5 220.5t279.5 82.5q76 0 155.5 -14t163.5 -45v-172q-88 41 -162.5 61.5t-134.5 20.5q-102 0 -158.5 -42t-56.5 -118q0 -94 217 -215q27 -16 41 -24q224 -125 292.5 -206t68.5 -188 q0 -94 -48 -166.5t-147 -130.5q66 -55 95.5 -111.5t29.5 -123.5q0 -150 -107.5 -238t-287.5 -88q-78 0 -159 15.5t-173 46.5v172q92 -41 169 -61.5t138 -20.5q109 0 168.5 44t59.5 124q0 106 -234 235l-24 15q-226 127 -293.5 206.5t-67.5 188.5zM266 793q0 -80 74 -151 t336 -212q65 47 98 95t33 98q0 77 -76 149t-334 211q-65 -49 -98 -96t-33 -94z" />
<glyph unicode="&#xa8;" d="M225 1417v213h213v-213h-213zM637 1417v213h213v-213h-213z" />
<glyph unicode="&#xa9;" horiz-adv-x="2150" d="M297 778q0 162 57.5 299t169.5 252q115 115 253 172.5t298 57.5t298 -57.5t251 -172.5q117 -115 173 -252t56 -299q0 -160 -56 -297t-173 -252q-113 -114 -251 -171.5t-298 -57.5t-298 57.5t-253 171.5q-112 115 -169.5 252t-57.5 297zM401 778q0 -135 51.5 -255 t149.5 -218t217 -148.5t256 -50.5q139 0 258 50.5t217 148.5q99 98 148 216t49 257q0 140 -50 258.5t-147 216.5q-98 99 -217 148t-258 49q-137 0 -256 -49t-217 -148q-98 -98 -149.5 -218t-51.5 -257zM610 778q0 219 132 346t360 127q76 0 147.5 -14t139.5 -43v-135 q-68 35 -136.5 51t-138.5 16q-156 0 -244 -92t-88 -256q0 -168 90.5 -259t251.5 -91q68 0 132.5 16.5t132.5 53.5v-136q-70 -28 -141.5 -43.5t-145.5 -15.5q-228 0 -360 128t-132 347z" />
<glyph unicode="&#xab;" horiz-adv-x="1317" d="M166 588v86l491 438v-201l-315 -280l315 -283v-201zM623 588v86l491 438v-201l-315 -280l315 -283v-201z" />
<glyph unicode="&#xac;" horiz-adv-x="1802" d="M227 727v178h1348v-604h-176v426h-1172z" />
<glyph unicode="&#xad;" horiz-adv-x="776" d="M104 504v172h568v-172h-568z" />
<glyph unicode="&#xae;" horiz-adv-x="2150" d="M297 778q0 162 57.5 299t169.5 252q115 115 253 172.5t298 57.5t298 -57.5t251 -172.5q117 -115 173 -252t56 -299q0 -160 -56 -297t-173 -252q-113 -114 -251 -171.5t-298 -57.5t-298 57.5t-253 171.5q-112 115 -169.5 252t-57.5 297zM401 778q0 -135 51.5 -255 t149.5 -218t217 -148.5t256 -50.5q139 0 258 50.5t217 148.5q99 98 148 216t49 257q0 140 -50 258.5t-147 216.5q-98 99 -217 148t-258 49q-137 0 -256 -49t-217 -148q-98 -98 -149.5 -218t-51.5 -257zM756 354v879h299q184 0 275 -62.5t91 -189.5q0 -90 -55 -149.5 t-156 -75.5q27 -8 62 -49t82 -117l143 -236h-178l-137 219q-62 103 -100 129.5t-95 26.5h-69v-375h-162zM918 836h129q114 0 160 31.5t46 111.5t-46 112.5t-160 32.5h-129v-288z" />
<glyph unicode="&#xaf;" d="M223 1448v154h629v-154h-629z" />
<glyph unicode="&#xb0;" d="M205 1260q0 141 96 238t238 97q65 0 127.5 -25.5t107.5 -74.5q47 -45 71.5 -105.5t24.5 -129.5q0 -140 -97 -235t-238 -95q-142 0 -236 94t-94 236zM338 1260q0 -82 58.5 -139.5t142.5 -57.5t141 57.5t57 139.5q0 83 -58 141.5t-140 58.5q-84 0 -142.5 -58.5 t-58.5 -141.5z" />
<glyph unicode="&#xb1;" horiz-adv-x="1802" d="M227 0v178h1348v-178h-1348zM227 764v178h586v406h176v-406h586v-178h-586v-408h-176v408h-586z" />
<glyph unicode="&#xb4;" d="M389 1325l295 395h209l-342 -395h-162z" />
<glyph unicode="&#xb6;" horiz-adv-x="1368" d="M166 1124q0 199 136 322t364 123h469v-1776h-148v1645h-201v-1645h-147v889q-225 16 -349 133t-124 309z" />
<glyph unicode="&#xb7;" horiz-adv-x="684" d="M229 612v269h222v-269h-222z" />
<glyph unicode="&#xb9;" horiz-adv-x="862" d="M143 1415v121l242 43h143v-762h215v-117h-579v117h215v641z" />
<glyph unicode="&#xba;" horiz-adv-x="1014" d="M100 1163q0 201 109.5 316.5t298.5 115.5q186 0 294.5 -115.5t108.5 -316.5q0 -200 -108.5 -315t-294.5 -115q-189 0 -298.5 116t-109.5 314zM145 492v131h723v-131h-723zM264 1163q0 -139 66.5 -223t177.5 -84q108 0 175 84t67 223q0 144 -66 228t-176 84 q-111 0 -177.5 -84t-66.5 -228z" />
<glyph unicode="&#xbb;" horiz-adv-x="1317" d="M203 147v201l315 283l-315 280v201l491 -438v-86zM657 147v201l318 283l-318 280v201l494 -438v-86z" />
<glyph unicode="&#xbf;" horiz-adv-x="1141" d="M150 340q0 80 38.5 151.5t130.5 161.5l95 90q49 52 69.5 79.5t28.5 54.5q6 20 9 52t3 89v129h201v-164q0 -106 -28.5 -175t-125.5 -159l-94 -94q-59 -53 -87 -103.5t-28 -101.5q0 -94 70 -151.5t182 -57.5q82 0 177.5 37t195.5 109v-199q-98 -59 -199.5 -89t-207.5 -30 q-195 0 -312.5 101.5t-117.5 269.5zM518 1300v269h213v-269h-213z" />
<glyph unicode="&#xc0;" horiz-adv-x="1470" d="M16 0l598 1569h242l596 -1569h-219l-143 401h-707l-143 -401h-224zM446 580h578l-289 780zM479 1995h197l205 -279h-160z" />
<glyph unicode="&#xc1;" horiz-adv-x="1470" d="M16 0l598 1569h242l596 -1569h-219l-143 401h-707l-143 -401h-224zM446 580h578l-289 780zM588 1716l205 279h194l-239 -279h-160z" />
<glyph unicode="&#xc2;" horiz-adv-x="1470" d="M16 0l598 1569h242l596 -1569h-219l-143 401h-707l-143 -401h-224zM416 1716l221 281h197l221 -281h-146l-174 189l-174 -189h-145zM446 580h578l-289 780z" />
<glyph unicode="&#xc3;" horiz-adv-x="1470" d="M16 0l598 1569h242l596 -1569h-219l-143 401h-707l-143 -401h-224zM387 1749q0 106 55.5 168.5t145.5 62.5q37 0 68.5 -9t82.5 -36l60 -30q24 -15 41.5 -21t33.5 -6q33 0 54.5 26.5t21.5 69.5v6h131q-2 -104 -56 -167.5t-142 -63.5q-35 0 -67 9t-85 36l-59 37 q-27 14 -43.5 19t-28.5 5q-39 0 -59.5 -25.5t-20.5 -72.5v-8h-133zM446 580h578l-289 780z" />
<glyph unicode="&#xc4;" horiz-adv-x="1470" d="M16 0l598 1569h242l596 -1569h-219l-143 401h-707l-143 -401h-224zM424 1749v213h213v-213h-213zM446 580h578l-289 780zM834 1749v213h213v-213h-213z" />
<glyph unicode="&#xc5;" horiz-adv-x="1470" d="M16 0l559 1466q-63 43 -96 103.5t-33 136.5q0 123 84 207t205 84q119 0 204 -85t85 -206q0 -72 -33 -134.5t-96 -105.5l557 -1466h-219l-143 401h-707l-143 -401h-224zM449 580h573l-287 780zM575 1706q0 -66 47.5 -112t112.5 -46q66 0 113 46t47 112q0 68 -47 115 t-113 47q-67 0 -113.5 -46t-46.5 -116z" />
<glyph unicode="&#xc6;" horiz-adv-x="2095" d="M8 0l658 1569h1271v-180h-778v-463h748v-178h-748v-570h799v-178h-1012v401h-555l-168 -401h-215zM465 580h481v823h-135z" />
<glyph unicode="&#xc7;" horiz-adv-x="1501" d="M121 782q0 377 204.5 595t561.5 218q139 0 264 -36.5t233 -110.5v-225q-106 100 -228 149t-257 49q-268 0 -411.5 -163.5t-143.5 -475.5q0 -311 143.5 -475t411.5 -164q135 0 257 50.5t228 148.5v-221q-110 -76 -235 -114t-262 -38q-357 0 -561.5 218.5t-204.5 594.5z M623 -252q34 -18 73 -26.5t88 -8.5q62 0 93.5 25.5t31.5 75.5q0 30 -22.5 76.5t-69.5 109.5h125q57 -66 86 -120t29 -105q0 -94 -63.5 -142.5t-186.5 -48.5q-49 0 -94 7.5t-90 19.5v137z" />
<glyph unicode="&#xc8;" horiz-adv-x="1360" d="M211 0v1569h991v-180h-778v-463h745v-178h-745v-570h797v-178h-1010zM446 1995h197l207 -279h-162z" />
<glyph unicode="&#xc9;" horiz-adv-x="1360" d="M211 0v1569h991v-180h-778v-463h745v-178h-745v-570h797v-178h-1010zM555 1716l207 279h192l-237 -279h-162z" />
<glyph unicode="&#xca;" horiz-adv-x="1360" d="M211 0v1569h991v-180h-778v-463h745v-178h-745v-570h797v-178h-1010zM383 1716l221 281h199l221 -281h-145l-177 189l-174 -189h-145z" />
<glyph unicode="&#xcb;" horiz-adv-x="1360" d="M211 0v1569h991v-180h-778v-463h745v-178h-745v-570h797v-178h-1010zM391 1749v213h213v-213h-213zM803 1749v213h213v-213h-213z" />
<glyph unicode="&#xcc;" horiz-adv-x="635" d="M61 1995h197l207 -279h-162zM211 0v1569h213v-1569h-213z" />
<glyph unicode="&#xcd;" horiz-adv-x="635" d="M170 1716l207 279h192l-237 -279h-162zM211 0v1569h213v-1569h-213z" />
<glyph unicode="&#xce;" horiz-adv-x="635" d="M-2 1716l221 281h199l221 -281h-147l-175 189l-174 -189h-145zM211 0v1569h213v-1569h-213z" />
<glyph unicode="&#xcf;" horiz-adv-x="635" d="M6 1749v213h213v-213h-213zM211 0v1569h213v-1569h-213zM418 1749v213h213v-213h-213z" />
<glyph unicode="&#xd0;" horiz-adv-x="1665" d="M10 735v152h211v682h436q455 0 668 -189.5t213 -595.5q0 -403 -213 -593.5t-668 -190.5h-436v735h-211zM434 174h256q324 0 475.5 147.5t151.5 462.5q0 316 -151.5 462.5t-475.5 146.5h-256v-506h352v-152h-352v-561z" />
<glyph unicode="&#xd1;" horiz-adv-x="1610" d="M211 0v1569h287l694 -1313v1313h207v-1569h-287l-694 1311v-1311h-207zM459 1749q0 106 53 168.5t143 62.5q39 0 71 -9t83 -36l59 -30q25 -15 42.5 -21t33.5 -6q35 0 55.5 26.5t20.5 69.5v6h131q-2 -104 -56.5 -167.5t-142.5 -63.5q-34 0 -66 9t-85 36l-62 37 q-24 14 -40.5 19t-28.5 5q-39 0 -59.5 -25.5t-20.5 -72.5v-8h-131z" />
<glyph unicode="&#xd2;" horiz-adv-x="1694" d="M121 782q0 371 197.5 592t529.5 221q330 0 527.5 -221t197.5 -592q0 -370 -197.5 -591.5t-527.5 -221.5q-332 0 -529.5 221.5t-197.5 591.5zM344 782q0 -297 136 -469t368 -172q229 0 364.5 172t135.5 469t-135.5 469t-364.5 172q-232 0 -368 -172t-136 -469zM592 1995 h194l207 -279h-159z" />
<glyph unicode="&#xd3;" horiz-adv-x="1694" d="M121 782q0 371 197.5 592t529.5 221q330 0 527.5 -221t197.5 -592q0 -370 -197.5 -591.5t-527.5 -221.5q-332 0 -529.5 221.5t-197.5 591.5zM344 782q0 -297 136 -469t368 -172q229 0 364.5 172t135.5 469t-135.5 469t-364.5 172q-232 0 -368 -172t-136 -469zM698 1716 l207 279h195l-240 -279h-162z" />
<glyph unicode="&#xd4;" horiz-adv-x="1694" d="M121 782q0 371 197.5 592t529.5 221q330 0 527.5 -221t197.5 -592q0 -370 -197.5 -591.5t-527.5 -221.5q-332 0 -529.5 221.5t-197.5 591.5zM344 782q0 -297 136 -469t368 -172q229 0 364.5 172t135.5 469t-135.5 469t-364.5 172q-232 0 -368 -172t-136 -469zM526 1716 l224 281h196l221 -281h-145l-174 189l-174 -189h-148z" />
<glyph unicode="&#xd5;" horiz-adv-x="1694" d="M121 782q0 371 197.5 592t529.5 221q330 0 527.5 -221t197.5 -592q0 -370 -197.5 -591.5t-527.5 -221.5q-332 0 -529.5 221.5t-197.5 591.5zM344 782q0 -297 136 -469t368 -172q229 0 364.5 172t135.5 469t-135.5 469t-364.5 172q-232 0 -368 -172t-136 -469zM502 1749 q0 106 53 168.5t143 62.5q39 0 71 -9t83 -36l59 -30q25 -15 42.5 -21t33.5 -6q35 0 55.5 26.5t20.5 69.5v6h131q-2 -104 -56.5 -167.5t-142.5 -63.5q-34 0 -66 9t-85 36l-62 37q-24 14 -40.5 19t-28.5 5q-39 0 -59.5 -25.5t-20.5 -72.5v-8h-131z" />
<glyph unicode="&#xd6;" horiz-adv-x="1694" d="M121 782q0 371 197.5 592t529.5 221q330 0 527.5 -221t197.5 -592q0 -370 -197.5 -591.5t-527.5 -221.5q-332 0 -529.5 221.5t-197.5 591.5zM344 782q0 -297 136 -469t368 -172q229 0 364.5 172t135.5 469t-135.5 469t-364.5 172q-232 0 -368 -172t-136 -469zM535 1749 v213h215v-213h-215zM946 1749v213h213v-213h-213z" />
<glyph unicode="&#xd7;" horiz-adv-x="1802" d="M295 193l479 481l-479 481l125 127l481 -481l481 481l125 -127l-479 -481l479 -481l-125 -127l-481 483l-481 -483z" />
<glyph unicode="&#xd8;" horiz-adv-x="1694" d="M106 18l181 211q-82 109 -124 247t-42 306q0 371 197.5 592t529.5 221q135 0 252 -39.5t207 -119.5l170 200l106 -94l-176 -207q82 -108 124 -247.5t42 -305.5q0 -370 -197.5 -591.5t-527.5 -221.5q-135 0 -251 39t-212 119l-170 -201zM344 782q0 -116 20.5 -215.5 t61.5 -171.5l754 891q-64 68 -149 102.5t-183 34.5q-232 0 -368 -172t-136 -469zM512 279q68 -66 152 -102t184 -36q229 0 364.5 172t135.5 469q0 117 -20.5 214.5t-61.5 170.5z" />
<glyph unicode="&#xd9;" horiz-adv-x="1575" d="M186 590v979h213v-955q0 -252 92.5 -362.5t294.5 -110.5q205 0 296.5 110.5t91.5 362.5v955h212v-979q0 -307 -151.5 -464t-448.5 -157t-448.5 157t-151.5 464zM530 1995h197l207 -279h-162z" />
<glyph unicode="&#xda;" horiz-adv-x="1575" d="M186 590v979h213v-955q0 -252 92.5 -362.5t294.5 -110.5q205 0 296.5 110.5t91.5 362.5v955h212v-979q0 -307 -151.5 -464t-448.5 -157t-448.5 157t-151.5 464zM639 1716l207 279h192l-237 -279h-162z" />
<glyph unicode="&#xdb;" horiz-adv-x="1575" d="M186 590v979h213v-955q0 -252 92.5 -362.5t294.5 -110.5q205 0 296.5 110.5t91.5 362.5v955h212v-979q0 -307 -151.5 -464t-448.5 -157t-448.5 157t-151.5 464zM467 1716l221 281h199l221 -281h-145l-177 189l-174 -189h-145z" />
<glyph unicode="&#xdc;" horiz-adv-x="1575" d="M186 590v979h213v-955q0 -252 92.5 -362.5t294.5 -110.5q205 0 296.5 110.5t91.5 362.5v955h212v-979q0 -307 -151.5 -464t-448.5 -157t-448.5 157t-151.5 464zM475 1749v213h213v-213h-213zM887 1749v213h213v-213h-213z" />
<glyph unicode="&#xdd;" horiz-adv-x="1315" d="M-4 1569h227l434 -645l433 645h229l-555 -821v-748h-213v748zM510 1716l207 279h192l-237 -279h-162z" />
<glyph unicode="&#xde;" horiz-adv-x="1300" d="M211 0v1569h213v-279h266q262 0 397.5 -117.5t135.5 -349.5q0 -231 -135.5 -350t-397.5 -119h-266v-354h-213zM424 528h266q148 0 228.5 77t80.5 218q0 142 -79.5 217.5t-229.5 75.5h-266v-588z" />
<glyph unicode="&#xdf;" horiz-adv-x="1354" d="M195 0v1194q0 211 125.5 325.5t355.5 114.5q219 0 332.5 -121.5t117.5 -357.5q-157 -8 -245 -68.5t-88 -160.5q0 -49 30.5 -92t98.5 -86l59 -39q174 -113 224 -188t50 -179q0 -180 -117.5 -276.5t-338.5 -96.5q-68 0 -139.5 13.5t-147.5 37.5v173q84 -31 156.5 -46.5 t142.5 -15.5q121 0 184.5 50t63.5 147q0 65 -32 109t-136 110l-96 57q-103 62 -148 132.5t-45 166.5q0 133 87 223.5t247 120.5q-8 109 -76.5 167.5t-187.5 58.5q-137 0 -209 -73t-72 -210v-1190h-196z" />
<glyph unicode="&#xe0;" horiz-adv-x="1319" d="M129 342q0 199 133 299t395 100h273v21q0 133 -88 205.5t-246 72.5q-100 0 -196.5 -24.5t-184.5 -71.5v178q107 41 206 61.5t193 20.5q256 0 382 -132t126 -400v-672h-192v178q-68 -106 -166 -157.5t-242 -51.5q-180 0 -286.5 101.5t-106.5 271.5zM264 1720h207l297 -393 h-162zM322 354q0 -102 68.5 -162.5t182.5 -60.5q162 0 259.5 113.5t97.5 304.5v43h-193q-233 0 -324 -54.5t-91 -183.5z" />
<glyph unicode="&#xe1;" horiz-adv-x="1319" d="M129 342q0 199 133 299t395 100h273v21q0 133 -88 205.5t-246 72.5q-100 0 -196.5 -24.5t-184.5 -71.5v178q107 41 206 61.5t193 20.5q256 0 382 -132t126 -400v-672h-192v178q-68 -106 -166 -157.5t-242 -51.5q-180 0 -286.5 101.5t-106.5 271.5zM322 354 q0 -102 68.5 -162.5t182.5 -60.5q162 0 259.5 113.5t97.5 304.5v43h-193q-233 0 -324 -54.5t-91 -183.5zM475 1325l295 395h209l-342 -395h-162z" />
<glyph unicode="&#xe2;" horiz-adv-x="1319" d="M129 342q0 199 133 299t395 100h273v21q0 133 -88 205.5t-246 72.5q-100 0 -196.5 -24.5t-184.5 -71.5v178q107 41 206 61.5t193 20.5q256 0 382 -132t126 -400v-672h-192v178q-68 -106 -166 -157.5t-242 -51.5q-180 0 -286.5 101.5t-106.5 271.5zM289 1325l258 395h153 l258 -395h-145l-188 256l-191 -256h-145zM322 354q0 -102 68.5 -162.5t182.5 -60.5q162 0 259.5 113.5t97.5 304.5v43h-193q-233 0 -324 -54.5t-91 -183.5z" />
<glyph unicode="&#xe3;" horiz-adv-x="1319" d="M129 342q0 199 133 299t395 100h273v21q0 133 -88 205.5t-246 72.5q-100 0 -196.5 -24.5t-184.5 -71.5v178q107 41 206 61.5t193 20.5q256 0 382 -132t126 -400v-672h-192v178q-68 -106 -166 -157.5t-242 -51.5q-180 0 -286.5 101.5t-106.5 271.5zM276 1374 q3 142 56 219.5t149 77.5q41 0 75 -15.5t73 -49.5l59 -58q23 -20 40 -30.5t32 -10.5q39 0 58.5 38t21.5 126h131q-2 -141 -56.5 -219t-148.5 -78q-41 0 -75 15.5t-73 48.5l-59 57q-22 23 -39.5 32t-32.5 9q-38 0 -56.5 -38t-22.5 -124h-132zM322 354q0 -102 68.5 -162.5 t182.5 -60.5q162 0 259.5 113.5t97.5 304.5v43h-193q-233 0 -324 -54.5t-91 -183.5z" />
<glyph unicode="&#xe4;" horiz-adv-x="1319" d="M129 342q0 199 133 299t395 100h273v21q0 133 -88 205.5t-246 72.5q-100 0 -196.5 -24.5t-184.5 -71.5v178q107 41 206 61.5t193 20.5q256 0 382 -132t126 -400v-672h-192v178q-68 -106 -166 -157.5t-242 -51.5q-180 0 -286.5 101.5t-106.5 271.5zM311 1417v213h213v-213 h-213zM322 354q0 -102 68.5 -162.5t182.5 -60.5q162 0 259.5 113.5t97.5 304.5v43h-193q-233 0 -324 -54.5t-91 -183.5zM723 1417v213h213v-213h-213z" />
<glyph unicode="&#xe5;" horiz-adv-x="1319" d="M129 342q0 199 133 299t395 100h273v21q0 133 -88 205.5t-246 72.5q-100 0 -196.5 -24.5t-184.5 -71.5v178q107 41 206 61.5t193 20.5q256 0 382 -132t126 -400v-672h-192v178q-68 -106 -166 -157.5t-242 -51.5q-180 0 -286.5 101.5t-106.5 271.5zM322 354 q0 -102 68.5 -162.5t182.5 -60.5q162 0 259.5 113.5t97.5 304.5v43h-193q-233 0 -324 -54.5t-91 -183.5zM336 1599q0 121 84 205t205 84q118 0 202 -84t84 -205q0 -120 -84 -204t-202 -84q-121 0 -205 84t-84 204zM465 1599q0 -67 45 -112t115 -45q65 0 111 46t46 111 q0 66 -46 113t-111 47q-70 0 -115 -46t-45 -114z" />
<glyph unicode="&#xe6;" horiz-adv-x="2111" d="M129 342q0 199 133 299t395 100h273v21q0 133 -88 205.5t-246 72.5q-100 0 -196.5 -24.5t-184.5 -71.5v178q107 41 206 61.5t193 20.5q150 0 261.5 -50t168.5 -142q78 94 190 143t251 49q235 0 374.5 -152.5t139.5 -414.5v-94h-889q12 -201 119.5 -306.5t300.5 -105.5 q108 0 212.5 27.5t211.5 85.5v-185q-107 -43 -215.5 -66.5t-220.5 -23.5q-175 0 -305 63.5t-212 188.5q-75 -125 -189 -188.5t-263 -63.5q-199 0 -309.5 98.5t-110.5 274.5zM322 354q0 -102 68.5 -162.5t182.5 -60.5q162 0 259.5 113.5t97.5 304.5v43h-193 q-233 0 -324 -54.5t-91 -183.5zM1116 692h688q-2 160 -88 254t-229 94q-162 0 -259.5 -91t-111.5 -257z" />
<glyph unicode="&#xe7;" horiz-adv-x="1182" d="M119 588q0 286 157.5 451t434.5 165q88 0 173 -18.5t165 -55.5v-180q-82 45 -164 67.5t-166 22.5q-189 0 -293 -118.5t-104 -333.5t104 -335t293 -120q84 0 166 22.5t164 67.5v-178q-80 -39 -167 -57.5t-186 -18.5q-264 0 -420.5 167t-156.5 452zM457 -252 q35 -18 73.5 -26.5t87.5 -8.5q62 0 93.5 25.5t31.5 75.5q0 30 -22.5 76.5t-69.5 109.5h125q58 -66 86.5 -120t28.5 -105q0 -94 -63.5 -142.5t-188.5 -48.5q-47 0 -92 7.5t-90 19.5v137z" />
<glyph unicode="&#xe8;" horiz-adv-x="1323" d="M119 575q0 289 155.5 459t419.5 170q238 0 376 -152.5t138 -414.5v-94h-889q15 -201 122.5 -305.5t297.5 -104.5q113 0 217.5 27.5t206.5 83.5v-185q-104 -43 -212.5 -66.5t-221.5 -23.5q-283 0 -446.5 164t-163.5 442zM323 1720h207l297 -393h-162zM328 692h688 q-2 160 -89 254t-231 94q-161 0 -257.5 -91t-110.5 -257z" />
<glyph unicode="&#xe9;" horiz-adv-x="1323" d="M119 575q0 289 155.5 459t419.5 170q238 0 376 -152.5t138 -414.5v-94h-889q15 -201 122.5 -305.5t297.5 -104.5q113 0 217.5 27.5t206.5 83.5v-185q-104 -43 -212.5 -66.5t-221.5 -23.5q-283 0 -446.5 164t-163.5 442zM328 692h688q-2 160 -89 254t-231 94 q-161 0 -257.5 -91t-110.5 -257zM534 1325l295 395h209l-342 -395h-162z" />
<glyph unicode="&#xea;" horiz-adv-x="1323" d="M119 575q0 289 155.5 459t419.5 170q238 0 376 -152.5t138 -414.5v-94h-889q15 -201 122.5 -305.5t297.5 -104.5q113 0 217.5 27.5t206.5 83.5v-185q-104 -43 -212.5 -66.5t-221.5 -23.5q-283 0 -446.5 164t-163.5 442zM328 692h688q-2 160 -89 254t-231 94 q-161 0 -257.5 -91t-110.5 -257zM348 1325l258 395h156l256 -395h-146l-188 256l-188 -256h-148z" />
<glyph unicode="&#xeb;" horiz-adv-x="1323" d="M119 575q0 289 155.5 459t419.5 170q238 0 376 -152.5t138 -414.5v-94h-889q15 -201 122.5 -305.5t297.5 -104.5q113 0 217.5 27.5t206.5 83.5v-185q-104 -43 -212.5 -66.5t-221.5 -23.5q-283 0 -446.5 164t-163.5 442zM328 692h688q-2 160 -89 254t-231 94 q-161 0 -257.5 -91t-110.5 -257zM370 1417v213h213v-213h-213zM782 1417v213h213v-213h-213z" />
<glyph unicode="&#xec;" horiz-adv-x="598" d="M-60 1720h207l297 -393h-162zM203 0v1176h192v-1176h-192z" />
<glyph unicode="&#xed;" horiz-adv-x="598" d="M151 1325l295 395h209l-342 -395h-162zM203 0v1176h192v-1176h-192z" />
<glyph unicode="&#xee;" horiz-adv-x="598" d="M-37 1325l258 395h156l258 -395h-148l-188 256l-188 -256h-148zM203 0v1176h192v-1176h-192z" />
<glyph unicode="&#xef;" horiz-adv-x="598" d="M-13 1417v213h213v-213h-213zM203 0v1176h192v-1176h-192zM399 1417v213h213v-213h-213z" />
<glyph unicode="&#xf0;" horiz-adv-x="1317" d="M119 563q0 262 144.5 426t375.5 164q20 0 48 -2t71 -8l-166 188l-336 -112l-35 104l295 96l-188 215h237l133 -151l351 114l34 -102l-309 -102l172 -195q131 -149 191.5 -301t60.5 -334q0 -266 -149.5 -430t-391.5 -164q-241 0 -389.5 164t-148.5 430zM322 563 q0 -196 92 -313t243 -117q154 0 245 117t91 313q0 129 -27.5 227.5t-84.5 170.5q-54 18 -100 26t-89 8q-176 0 -273 -113.5t-97 -318.5z" />
<glyph unicode="&#xf1;" horiz-adv-x="1364" d="M195 0v1176h194v-183q70 107 164 159t217 52q203 0 306.5 -126t103.5 -367v-711h-193v702q0 168 -65.5 251t-194.5 83q-158 0 -248 -99t-90 -271v-666h-194zM350 1374q2 142 56.5 219.5t148.5 77.5q41 0 75 -15.5t70 -49.5l62 -58q22 -20 39.5 -30.5t32.5 -10.5 q38 0 56.5 38t20.5 126h133q-2 -141 -56 -219t-148 -78q-41 0 -75 15.5t-73 48.5l-59 57q-23 23 -40.5 32t-31.5 9q-39 0 -58.5 -38t-21.5 -124h-131z" />
<glyph unicode="&#xf2;" horiz-adv-x="1317" d="M119 588q0 289 143.5 452.5t394.5 163.5q252 0 396.5 -163.5t144.5 -452.5t-144.5 -454t-396.5 -165q-251 0 -394.5 165t-143.5 454zM299 1720h207l297 -393h-162zM322 588q0 -211 90 -333t245 -122q156 0 246 122t90 333q0 209 -90 330.5t-246 121.5q-153 0 -244 -120.5 t-91 -331.5z" />
<glyph unicode="&#xf3;" horiz-adv-x="1317" d="M119 588q0 289 143.5 452.5t394.5 163.5q252 0 396.5 -163.5t144.5 -452.5t-144.5 -454t-396.5 -165q-251 0 -394.5 165t-143.5 454zM322 588q0 -211 90 -333t245 -122q156 0 246 122t90 333q0 209 -90 330.5t-246 121.5q-153 0 -244 -120.5t-91 -331.5zM510 1325 l295 395h209l-342 -395h-162z" />
<glyph unicode="&#xf4;" horiz-adv-x="1317" d="M119 588q0 289 143.5 452.5t394.5 163.5q252 0 396.5 -163.5t144.5 -452.5t-144.5 -454t-396.5 -165q-251 0 -394.5 165t-143.5 454zM322 588q0 -211 90 -333t245 -122q156 0 246 122t90 333q0 209 -90 330.5t-246 121.5q-153 0 -244 -120.5t-91 -331.5zM324 1325 l258 395h153l258 -395h-145l-191 256l-188 -256h-145z" />
<glyph unicode="&#xf5;" horiz-adv-x="1317" d="M119 588q0 289 143.5 452.5t394.5 163.5q252 0 396.5 -163.5t144.5 -452.5t-144.5 -454t-396.5 -165q-251 0 -394.5 165t-143.5 454zM311 1374q2 142 56.5 219.5t148.5 77.5q39 0 74 -15.5t74 -49.5l59 -58q22 -20 39.5 -30.5t32.5 -10.5q39 0 57 38t22 126h132 q-2 -141 -56.5 -219t-148.5 -78q-41 0 -75 15.5t-73 48.5l-59 57q-23 23 -40 32t-32 9q-39 0 -58.5 -38t-21.5 -124h-131zM322 588q0 -211 90 -333t245 -122q156 0 246 122t90 333q0 209 -90 330.5t-246 121.5q-153 0 -244 -120.5t-91 -331.5z" />
<glyph unicode="&#xf6;" horiz-adv-x="1317" d="M119 588q0 289 143.5 452.5t394.5 163.5q252 0 396.5 -163.5t144.5 -452.5t-144.5 -454t-396.5 -165q-251 0 -394.5 165t-143.5 454zM322 588q0 -211 90 -333t245 -122q156 0 246 122t90 333q0 209 -90 330.5t-246 121.5q-153 0 -244 -120.5t-91 -331.5zM346 1417v213 h213v-213h-213zM758 1417v213h213v-213h-213z" />
<glyph unicode="&#xf7;" horiz-adv-x="1802" d="M227 586v178h1348v-178h-1348zM772 158v258h258v-258h-258zM772 934v258h258v-258h-258z" />
<glyph unicode="&#xf8;" horiz-adv-x="1317" d="M76 -16l155 190q-57 82 -84.5 185.5t-27.5 228.5q0 289 143.5 452.5t394.5 163.5q99 0 183 -26.5t153 -81.5l146 178l100 -84l-154 -189q56 -79 84.5 -183.5t28.5 -229.5q0 -289 -144.5 -454t-396.5 -165q-100 0 -185 28t-150 81l-146 -176zM322 571q0 -73 10 -131.5 t30 -105.5l515 620q-46 43 -100 64.5t-120 21.5q-157 0 -246 -122.5t-89 -346.5zM438 219q43 -45 97.5 -65.5t121.5 -20.5q156 0 246 122t90 333q0 82 -10 143.5t-33 110.5z" />
<glyph unicode="&#xf9;" horiz-adv-x="1364" d="M182 465v711h195v-705q0 -168 64.5 -251t195.5 -83q156 0 247 100.5t91 272.5v666h192v-1176h-192v180q-72 -106 -164 -158.5t-215 -52.5q-203 0 -308.5 126t-105.5 370zM307 1720h207l297 -393h-162z" />
<glyph unicode="&#xfa;" horiz-adv-x="1364" d="M182 465v711h195v-705q0 -168 64.5 -251t195.5 -83q156 0 247 100.5t91 272.5v666h192v-1176h-192v180q-72 -106 -164 -158.5t-215 -52.5q-203 0 -308.5 126t-105.5 370zM518 1325l295 395h209l-342 -395h-162z" />
<glyph unicode="&#xfb;" horiz-adv-x="1364" d="M182 465v711h195v-705q0 -168 64.5 -251t195.5 -83q156 0 247 100.5t91 272.5v666h192v-1176h-192v180q-72 -106 -164 -158.5t-215 -52.5q-203 0 -308.5 126t-105.5 370zM332 1325l258 395h153l258 -395h-145l-188 256l-191 -256h-145z" />
<glyph unicode="&#xfc;" horiz-adv-x="1364" d="M182 465v711h195v-705q0 -168 64.5 -251t195.5 -83q156 0 247 100.5t91 272.5v666h192v-1176h-192v180q-72 -106 -164 -158.5t-215 -52.5q-203 0 -308.5 126t-105.5 370zM354 1417v213h213v-213h-213zM766 1417v213h213v-213h-213z" />
<glyph unicode="&#xfd;" horiz-adv-x="1274" d="M63 1176h205l369 -920l367 920h204l-516 -1285q-82 -210 -159.5 -273.5t-208.5 -63.5h-154v159h113q79 0 123.5 38t99.5 179l35 88zM487 1325l295 395h209l-342 -395h-162z" />
<glyph unicode="&#xfe;" horiz-adv-x="1366" d="M195 -446v2080h194v-637q62 105 155 156t222 51q215 0 348 -170t133 -446q0 -279 -133 -449t-348 -170q-129 0 -222 51.5t-155 155.5v-622h-194zM389 588q0 -213 88 -335t242 -122q151 0 239.5 122t88.5 335t-88.5 333.5t-239.5 120.5q-154 0 -242 -120.5t-88 -333.5z " />
<glyph unicode="&#xff;" horiz-adv-x="1274" d="M63 1176h205l369 -920l367 920h204l-516 -1285q-82 -210 -159.5 -273.5t-208.5 -63.5h-154v159h113q79 0 123.5 38t99.5 179l35 88zM323 1417v213h213v-213h-213zM735 1417v213h213v-213h-213z" />
<glyph unicode="&#x401;" horiz-adv-x="1360" d="M211 0v1569h991v-180h-778v-463h745v-178h-745v-570h797v-178h-1010zM391 1749v213h213v-213h-213zM801 1749v213h213v-213h-213z" />
<glyph unicode="&#x410;" horiz-adv-x="1470" d="M16 0l598 1569h242l596 -1569h-219l-143 401h-707l-143 -401h-224zM446 580h578l-289 780z" />
<glyph unicode="&#x411;" horiz-adv-x="1475" d="M211 0v1569h1001v-176h-788v-469h350q262 0 405.5 -115t143.5 -348q0 -232 -138 -346.5t-411 -114.5h-563zM424 174h340q170 0 253 70.5t83 216.5q0 145 -83 217t-253 72h-340v-576z" />
<glyph unicode="&#x412;" horiz-adv-x="1475" d="M211 0v1569h543q241 0 372 -101.5t131 -287.5q0 -144 -67.5 -229t-196.5 -105q158 -35 244 -141.5t86 -266.5q0 -209 -143.5 -323.5t-405.5 -114.5h-563zM424 174h340q170 0 253 70.5t83 218.5q0 145 -83 216t-253 71h-340v-576zM424 922h313q156 0 231.5 57t75.5 178 q0 119 -75.5 177.5t-231.5 58.5h-313v-471z" />
<glyph unicode="&#x413;" horiz-adv-x="1311" d="M211 0v1569h975v-180h-762v-1389h-213z" />
<glyph unicode="&#x414;" horiz-adv-x="1679" d="M106 178h74q142 68 180 193q103 323 103 901v297h932v-1391h180v-516h-180v338h-1110v-338h-179v516zM489 178h695v1211h-510v-222q0 -524 -119 -872q-23 -72 -66 -117z" />
<glyph unicode="&#x415;" horiz-adv-x="1360" d="M211 0v1569h991v-180h-778v-463h745v-178h-745v-570h797v-178h-1010z" />
<glyph unicode="&#x416;" horiz-adv-x="2316" d="M43 0l608 948l-571 621h256l717 -776v776h211v-776l716 776h258l-573 -621l608 -948h-221l-516 807l-272 -293v-514h-211v514l-273 293l-516 -807h-221z" />
<glyph unicode="&#x417;" horiz-adv-x="1378" d="M141 68v219q160 -94 249 -117t220 -23q197 0 306.5 76t109.5 234q0 137 -97.5 216t-301.5 79h-213v174h221q188 0 271 62.5t83 178.5q0 121 -86 185.5t-293 64.5q-141 0 -189 -12t-263 -94v207q118 43 242 60t214 17q258 0 422 -109.5t164 -295.5q0 -131 -74.5 -220 t-212.5 -124q154 -33 239 -136.5t85 -252.5q0 -244 -186.5 -366t-436.5 -122q-129 0 -277.5 35t-195.5 64z" />
<glyph unicode="&#x418;" horiz-adv-x="1610" d="M211 0v1569h207v-1313l694 1313h287v-1569h-207v1311l-694 -1311h-287z" />
<glyph unicode="&#x419;" horiz-adv-x="1610" d="M211 0v1569h207v-1313l694 1313h287v-1569h-207v1311l-694 -1311h-287zM467 1997h123q14 -58 66.5 -88.5t138.5 -30.5t137 29.5t67 89.5h123q-10 -125 -94 -189.5t-233 -64.5q-152 0 -235 63.5t-93 190.5z" />
<glyph unicode="&#x41a;" horiz-adv-x="1528" d="M211 0v1569h213v-776l758 776h270l-604 -621l637 -948h-232l-542 807l-287 -293v-514h-213z" />
<glyph unicode="&#x41b;" horiz-adv-x="1618" d="M88 0v178q227 49 293 221q90 273 90 901v269h934v-1569h-211v1389h-510v-193q0 -594 -109 -872q-102 -265 -487 -324z" />
<glyph unicode="&#x41c;" horiz-adv-x="1855" d="M211 0v1569h315l402 -1067l401 1067h316v-1569h-207v1376l-404 -1075h-213l-403 1075v-1376h-207z" />
<glyph unicode="&#x41d;" horiz-adv-x="1618" d="M211 0v1569h213v-643h770v643h213v-1569h-213v748h-770v-748h-213z" />
<glyph unicode="&#x41e;" horiz-adv-x="1694" d="M121 782q0 371 197.5 592t529.5 221q330 0 527.5 -221t197.5 -592q0 -370 -197.5 -591.5t-527.5 -221.5q-332 0 -529.5 221.5t-197.5 591.5zM344 782q0 -297 136 -469t368 -172q229 0 364.5 172t135.5 469t-135.5 469t-364.5 172q-232 0 -368 -172t-136 -469z" />
<glyph unicode="&#x41f;" horiz-adv-x="1618" d="M211 0v1569h1196v-1569h-213v1389h-770v-1389h-213z" />
<glyph unicode="&#x420;" horiz-adv-x="1296" d="M211 0v1569h479q262 0 397.5 -120t135.5 -349q0 -234 -135.5 -351.5t-397.5 -117.5h-266v-631h-213zM424 805h266q148 0 228.5 76.5t80.5 218.5q0 139 -80.5 216t-228.5 77h-266v-588z" />
<glyph unicode="&#x421;" horiz-adv-x="1501" d="M121 782q0 377 204.5 595t561.5 218q139 0 264 -36.5t233 -110.5v-225q-106 100 -228 149t-257 49q-268 0 -411.5 -163.5t-143.5 -475.5q0 -311 143.5 -475t411.5 -164q135 0 257 50.5t228 148.5v-221q-110 -76 -235 -114t-262 -38q-357 0 -561.5 218.5t-204.5 594.5z " />
<glyph unicode="&#x422;" horiz-adv-x="1315" d="M-6 1389v180h1327v-180h-557v-1389h-213v1389h-557z" />
<glyph unicode="&#x423;" horiz-adv-x="1311" d="M37 1569h227l389 -922l394 922h227l-586 -1379q-22 -53 -55 -92q-84 -98 -346 -98h-82v178h65q125 0 174 29q29 18 48 61l49 113z" />
<glyph unicode="&#x424;" horiz-adv-x="1851" d="M127 803q0 278 180 437t512 181v148h213v-148q334 -22 513 -180t179 -438q0 -279 -179 -435.5t-513 -181.5v-186h-213v186q-332 25 -512 181.5t-180 435.5zM350 803q0 -207 121 -313.5t348 -127.5v883q-227 -20 -348 -127.5t-121 -314.5zM1032 362q230 21 348.5 127.5 t118.5 313.5t-118.5 314.5t-348.5 127.5v-883z" />
<glyph unicode="&#x425;" horiz-adv-x="1473" d="M63 0l562 838l-490 731h227l392 -584l391 584h227l-504 -754l539 -815h-229l-441 668l-444 -668h-230z" />
<glyph unicode="&#x426;" horiz-adv-x="1669" d="M211 0v1569h213v-1391h770v1391h213v-1391h176v-516h-176v338h-1196z" />
<glyph unicode="&#x427;" horiz-adv-x="1475" d="M184 1137v432h211v-416q0 -166 64.5 -249t195.5 -83h396v748h213v-1569h-213v643h-439q-194 0 -311 122t-117 372z" />
<glyph unicode="&#x428;" horiz-adv-x="2300" d="M211 0v1569h213v-1391h620v1391h211v-1391h621v1391h213v-1569h-1878z" />
<glyph unicode="&#x429;" horiz-adv-x="2351" d="M211 0v1569h213v-1391h620v1391h211v-1391h621v1391h213v-1391h178v-516h-178v338h-1878z" />
<glyph unicode="&#x42a;" horiz-adv-x="1790" d="M63 1389v180h674v-645h353q262 0 405 -115t143 -348q0 -232 -143 -346.5t-405 -114.5h-564v1389h-463zM737 174h340q170 0 254 72q82 69 82 215q0 145 -82 217t-254 72h-340v-576z" />
<glyph unicode="&#x42b;" horiz-adv-x="1896" d="M211 0v1569h213v-645h350q262 0 405.5 -115t143.5 -348q0 -232 -143.5 -346.5t-405.5 -114.5h-563zM424 174h340q170 0 252 72q84 69 84 215q0 145 -84 217q-82 72 -252 72h-340v-576zM1475 0v1569h213v-1569h-213z" />
<glyph unicode="&#x42c;" horiz-adv-x="1475" d="M211 0v1569h213v-645h350q262 0 405.5 -115t143.5 -348q0 -232 -143.5 -346.5t-405.5 -114.5h-563zM424 174h340q170 0 252 72q84 69 84 215q0 145 -84 217q-82 72 -252 72h-340v-576z" />
<glyph unicode="&#x42d;" horiz-adv-x="1501" d="M117 121v221q221 -199 489 -199q279 0 404 149.5t147 399.5h-838v178h838q-22 252 -147 401.5t-404 149.5q-268 0 -489 -198v225q219 147 501 147q353 0 557.5 -218t204.5 -595q0 -376 -204.5 -594.5t-557.5 -218.5q-278 0 -501 152z" />
<glyph unicode="&#x42e;" horiz-adv-x="2322" d="M221 0v1569h213v-697h320q14 295 202 510q191 213 521 213q329 0 526 -221q199 -221 199 -592q0 -370 -199 -592q-197 -221 -526 -221q-330 0 -521 215q-188 215 -202 510h-320v-694h-213zM973 782q0 -297 137 -469q135 -172 367 -172q229 0 364 172t135 469t-135 469 t-364 172q-232 0 -367 -172q-137 -172 -137 -469z" />
<glyph unicode="&#x42f;" horiz-adv-x="1493" d="M143 0l428 686q-104 27 -239 116t-135 314q0 215 136 334t408 119h541v-1569h-211v664h-285l-411 -664h-232zM432 1116q0 -137 78 -207.5t231 -70.5h330v555h-330q-153 0 -231 -70t-78 -207z" />
<glyph unicode="&#x430;" horiz-adv-x="1319" d="M129 342q0 199 133 299t395 100h273v21q0 133 -88 205.5t-246 72.5q-100 0 -196.5 -24.5t-184.5 -71.5v178q107 41 206 61.5t193 20.5q256 0 382 -132t126 -400v-672h-192v178q-68 -106 -166 -157.5t-242 -51.5q-180 0 -286.5 101.5t-106.5 271.5zM322 354 q0 -102 68.5 -162.5t182.5 -60.5q162 0 259.5 113.5t97.5 304.5v43h-193q-233 0 -324 -54.5t-91 -183.5z" />
<glyph unicode="&#x431;" horiz-adv-x="1325" d="M119 995q0 168 59 291q96 197 261 281t444 86q127 0 184 18l53 -153q-51 -23 -98 -23l-262 -18q-133 -9 -213 -56q-209 -123 -230 -282l-6 -60q135 125 359 125q252 0 395 -163.5t143 -452.5t-143 -454t-395 -165q-254 0 -394.5 160t-146.5 459l-6 239q-4 125 -4 168z M334 588q0 -211 89 -333t247 -122q153 0 243.5 122t90.5 333q0 209 -90.5 330.5t-243.5 121.5q-158 0 -247 -120.5t-89 -331.5z" />
<glyph unicode="&#x432;" horiz-adv-x="1268" d="M195 0v1176h460q207 0 318.5 -76t111.5 -215q0 -109 -57 -172.5t-168 -77.5q133 -27 207 -106.5t74 -198.5q0 -158 -122 -244t-345 -86h-479zM387 154h277q133 0 201.5 50t68.5 144t-68.5 144.5t-201.5 50.5h-277v-389zM387 696h256q109 0 178.5 43t69.5 121t-69.5 120 t-178.5 42h-256v-326z" />
<glyph unicode="&#x433;" horiz-adv-x="1130" d="M195 0v1176h829v-154h-635v-1022h-194z" />
<glyph unicode="&#x434;" horiz-adv-x="1487" d="M113 154h71q97 43 138 133q104 221 104 665v224h795v-1022h153v-451h-153v297h-955v-297h-153v451zM465 154h561v868h-408v-148q0 -432 -122 -663z" />
<glyph unicode="&#x435;" horiz-adv-x="1323" d="M119 575q0 289 155.5 459t419.5 170q238 0 376 -152.5t138 -414.5v-94h-889q15 -201 122.5 -305.5t297.5 -104.5q113 0 217.5 27.5t206.5 83.5v-185q-104 -43 -212.5 -66.5t-221.5 -23.5q-283 0 -446.5 164t-163.5 442zM328 692h688q-2 160 -89 254t-231 94 q-161 0 -257.5 -91t-110.5 -257z" />
<glyph unicode="&#x436;" horiz-adv-x="1937" d="M74 0l481 723l-422 453h225l514 -551v551h193v-551l514 551h223l-422 -453l484 -723h-207l-395 594l-197 -211v-383h-193v383l-196 211l-395 -594h-207z" />
<glyph unicode="&#x437;" horiz-adv-x="1143" d="M139 29v180q74 -39 164 -59.5t186 -20.5q160 0 248 59.5t88 153.5q0 92 -77.5 148.5t-223.5 56.5h-153v160h161q121 0 193 47t72 120q0 66 -74 114t-199 48q-73 0 -158 -13t-186 -42v174q103 25 192 37t169 12q207 0 325.5 -82t118.5 -229q0 -98 -63.5 -166t-180.5 -92 q129 -27 202 -102.5t73 -190.5q0 -180 -135.5 -276.5t-384.5 -96.5q-84 0 -173.5 15.5t-183.5 44.5z" />
<glyph unicode="&#x438;" horiz-adv-x="1399" d="M195 0v1176h192v-943l565 943h250v-1176h-192v944l-568 -944h-247z" />
<glyph unicode="&#x439;" horiz-adv-x="1399" d="M195 0v1176h192v-943l565 943h250v-1176h-192v944l-568 -944h-247zM371 1634h125q10 -80 61 -118.5t141 -38.5q93 0 143 38.5t62 118.5h125q-10 -149 -93 -226t-237 -77q-151 0 -234 77t-93 226z" />
<glyph unicode="&#x43a;" horiz-adv-x="1298" d="M195 0v1176h192v-551l545 551h237l-448 -455l506 -721h-215l-418 594l-207 -211v-383h-192z" />
<glyph unicode="&#x43b;" horiz-adv-x="1374" d="M80 0v162q190 28 250 160q71 186 71 661v193h795v-1176h-192v1022h-410v-117q0 -454 -92 -657q-99 -217 -422 -248z" />
<glyph unicode="&#x43c;" horiz-adv-x="1622" d="M195 0v1176h282l334 -789l336 789h280v-1176h-194v991l-326 -766h-192l-326 766v-991h-194z" />
<glyph unicode="&#x43d;" horiz-adv-x="1407" d="M195 0v1176h194v-480h627v480h194v-1176h-194v543h-627v-543h-194z" />
<glyph unicode="&#x43e;" horiz-adv-x="1317" d="M119 588q0 289 143.5 452.5t394.5 163.5q252 0 396.5 -163.5t144.5 -452.5t-144.5 -454t-396.5 -165q-251 0 -394.5 165t-143.5 454zM322 588q0 -211 90 -333t245 -122q156 0 246 122t90 333q0 209 -90 330.5t-246 121.5q-153 0 -244 -120.5t-91 -331.5z" />
<glyph unicode="&#x43f;" horiz-adv-x="1407" d="M195 0v1176h1015v-1176h-194v1022h-627v-1022h-194z" />
<glyph unicode="&#x440;" horiz-adv-x="1366" d="M195 -446v1622h194v-179q62 105 155 156t222 51q215 0 348 -170t133 -446q0 -279 -133 -449t-348 -170q-129 0 -222 51.5t-155 155.5v-622h-194zM389 588q0 -213 88 -335t242 -122q151 0 239.5 122t88.5 335t-88.5 333.5t-239.5 120.5q-154 0 -242 -120.5t-88 -333.5z " />
<glyph unicode="&#x441;" horiz-adv-x="1182" d="M119 588q0 286 157.5 451t434.5 165q88 0 173 -18.5t165 -55.5v-180q-82 45 -164 67.5t-166 22.5q-189 0 -293 -118.5t-104 -333.5t104 -335t293 -120q84 0 166 22.5t164 67.5v-178q-80 -39 -167 -57.5t-186 -18.5q-264 0 -420.5 167t-156.5 452z" />
<glyph unicode="&#x442;" horiz-adv-x="1253" d="M63 1022v154h1127v-154h-469v-1022h-191v1022h-467z" />
<glyph unicode="&#x443;" horiz-adv-x="1274" d="M63 1176h205l369 -920l367 920h204l-516 -1285q-82 -210 -159.5 -273.5t-208.5 -63.5h-154v159h113q79 0 123.5 38t99.5 179l35 88z" />
<glyph unicode="&#x444;" horiz-adv-x="1839" d="M119 584q0 286 121.5 453t298.5 167q86 0 154.5 -40t127.5 -138v543h195v-543q59 98 128.5 138t155.5 40q177 0 298.5 -167t121.5 -453q0 -289 -121.5 -452t-298.5 -163q-86 0 -155.5 41t-128.5 140v-596h-195v596q-59 -99 -127.5 -140t-154.5 -41q-177 0 -298.5 163 t-121.5 452zM317 588q0 -248 76 -352.5t207 -104.5q102 0 221 176v559q-119 176 -221 176q-131 0 -207 -104t-76 -350zM1016 307q121 -176 223 -176q129 0 205 104.5t76 352.5q0 246 -76 350t-205 104q-102 0 -223 -176v-559z" />
<glyph unicode="&#x445;" horiz-adv-x="1274" d="M61 0l457 614l-418 562h230l309 -418l313 418h228l-424 -572l446 -604h-227l-342 463l-342 -463h-230z" />
<glyph unicode="&#x446;" horiz-adv-x="1464" d="M195 0v1176h194v-1022h627v1022h194v-1022h156v-451h-156v297h-1015z" />
<glyph unicode="&#x447;" horiz-adv-x="1270" d="M158 879v297h192v-281q0 -123 56 -184q55 -62 163 -62h314v527h192v-1176h-192v496h-361q-162 0 -268 98q-96 90 -96 285z" />
<glyph unicode="&#x448;" horiz-adv-x="1968" d="M195 0v1176h194v-1022h498v1022h192v-1022h500v1022h193v-1176h-1577z" />
<glyph unicode="&#x449;" horiz-adv-x="2025" d="M195 0v1176h194v-1022h498v1022h192v-1022h500v1022h193v-1022h155v-451h-155v297h-1577z" />
<glyph unicode="&#x44a;" horiz-adv-x="1520" d="M66 1022v154h573v-480h287q225 0 346 -86t121 -262t-121 -262t-346 -86h-480v1022h-380zM639 154h279q131 0 199.5 50t68.5 144t-68.5 144.5t-199.5 50.5h-279v-389z" />
<glyph unicode="&#x44b;" horiz-adv-x="1698" d="M195 0v1176h194v-480h285q223 0 345 -86t122 -262t-122 -262t-345 -86h-479zM389 154h277q131 0 199.5 50t68.5 144t-68.5 144.5t-199.5 50.5h-277v-389zM1315 0v1176h192v-1176h-192z" />
<glyph unicode="&#x44c;" horiz-adv-x="1268" d="M195 0v1176h194v-480h285q223 0 345 -86t122 -262t-122 -262t-345 -86h-479zM389 154h277q131 0 199.5 50t68.5 144t-68.5 144.5t-199.5 50.5h-277v-389z" />
<glyph unicode="&#x44d;" horiz-adv-x="1180" d="M119 45v178q166 -90 330 -90q155 0 264.5 90t130.5 320h-596v153h590q-13 111 -97 227.5t-292 116.5q-160 0 -330 -90v180q164 74 340 74q274 0 432 -167t158 -449q0 -285 -154 -452t-424 -167q-199 0 -352 76z" />
<glyph unicode="&#x44e;" horiz-adv-x="1810" d="M203 0v1176h192v-469h223q21 198 152 347.5t383 149.5t396.5 -163.5t144.5 -452.5t-144.5 -454t-396.5 -165q-254 0 -391 159t-148 419h-219v-547h-192zM817 588q0 -211 89 -333t247 -122q154 0 245 122t91 333q0 209 -91 330.5t-245 121.5q-156 0 -246 -120.5 t-90 -331.5z" />
<glyph unicode="&#x44f;" horiz-adv-x="1294" d="M123 0l358 516q-123 27 -203.5 98.5t-80.5 223.5q0 170 113.5 254t340.5 84h459v-1176h-192v498h-242l-346 -498h-207zM397 838q0 -88 66.5 -137.5t191.5 -49.5h263v371h-263q-125 0 -191.5 -48t-66.5 -136z" />
<glyph unicode="&#x451;" horiz-adv-x="1323" d="M119 575q0 289 155.5 459t419.5 170q238 0 376 -152.5t138 -414.5v-94h-889q15 -201 122.5 -305.5t297.5 -104.5q113 0 217.5 27.5t206.5 83.5v-185q-104 -43 -212.5 -66.5t-221.5 -23.5q-283 0 -446.5 164t-163.5 442zM328 692h688q-2 160 -89 254t-231 94 q-161 0 -257.5 -91t-110.5 -257zM383 1417v213h213v-213h-213zM795 1417v213h213v-213h-213z" />
<glyph unicode="&#x10a0;" horiz-adv-x="1464" d="M154 391v92q0 140 152 363l163 -81q-89 -160 -89 -282v-101q0 -171 72 -281q72 -104 275 -104q87 0 150.5 26t105.5 74q38 53 59.5 125.5t21.5 159.5v202q0 159 -66.5 300t-203.5 271q-283 272 -283 554v151h215v-151q0 -227 275 -484q144 -137 217 -296.5t73 -344.5 v-202q0 -137 -41 -244.5t-120 -185.5q-158 -154 -403 -154q-239 0 -406 154q-167 155 -167 439z" />
<glyph unicode="&#x10a1;" horiz-adv-x="1464" d="M154 357v293q0 254 169 417q81 77 163.5 117.5t162.5 45.5q39 93 39 222q0 71 -141 142q-83 43 -123.5 113t-40.5 173h224q0 -135 141 -204q163 -85 163 -213q0 -60 -12 -121.5t-32 -114.5q51 -10 114 -51t136 -109q84 -81 129 -186.5t45 -230.5v-296q0 -211 -164 -386 q-83 -87 -183.5 -131t-220.5 -44q-249 0 -411 174q-158 173 -158 390zM380 385q0 -85 24 -155.5t69 -127.5q46 -52 109 -81t141 -29q75 0 139 29t111 76q42 55 66.5 124.5t24.5 149.5v271q0 178 -100 288q-101 108 -241 108q-80 -1 -142.5 -29t-108.5 -79 q-45 -56 -68.5 -129.5t-23.5 -165.5v-250z" />
<glyph unicode="&#x10a2;" horiz-adv-x="1647" d="M156 401v158q10 307 213 475q200 162 479 167q62 66 91.5 131t29.5 126q0 51 -12.5 92.5t-40 70t-71 44t-106.5 15.5q-64 0 -110.5 -12t-77 -33.5t-45 -51.5t-14.5 -66v-193h-204v193q0 72 32.5 136.5t95.5 117.5q62 52 144 80.5t179 28.5q218 0 329 -117 q109 -115 109 -282q0 -156 -117 -305q91 -29 234 -164q85 -80 130.5 -185.5t45.5 -234.5v-191q0 -114 -47 -220t-133 -199q-88 -90 -211.5 -139.5t-273.5 -49.5q-259 0 -456 188q-97 95 -145 198.5t-48 221.5zM381 422q0 -85 29.5 -159t86.5 -140q117 -131 314 -131 q114 0 196.5 30.5t130.5 91.5q100 127 100 308v168q0 161 -111 285q-54 64 -118 94t-137 30h-91q-172 0 -286 -111q-114 -108 -114 -337v-129z" />
<glyph unicode="&#x10a3;" horiz-adv-x="2179" d="M160 1129v190q0 221 129 390q132 171 402 171q98 0 193.5 -45.5t186.5 -137.5q71 96 167.5 139.5t226.5 43.5q274 0 400 -187q64 -94 94.5 -210t30.5 -259v-118q0 -324 -133 -489t-392 -168q-246 0 -390 179q-141 175 -141 489v101q0 63 13 146t42 189q-27 35 -56.5 61 t-60.5 38q-35 13 -81 20.5t-100 7.5q-145 0 -224 -94q-41 -48 -62 -115t-21 -152v-181q2 -137 42 -275.5t114 -275.5v1q38 -63 95 -121.5t130.5 -110t163 -95t191.5 -76.5q220 -72 335 -170.5t117 -224.5h-263q-2 44 -37.5 85t-97 76.5t-146 65t-183.5 52.5 q-94 -3 -196 -40.5t-208 -109.5l-88 214q66 17 139.5 31.5t156.5 25.5q-248 204 -368.5 437.5t-120.5 501.5zM1164 1119q0 -252 70 -362q35 -55 92.5 -80.5t138.5 -25.5t138.5 26t89.5 81q70 109 70 353v113q0 258 -70 356q-32 51 -89.5 75.5t-138.5 24.5q-163 0 -231 -91 q-70 -90 -70 -361v-109z" />
<glyph unicode="&#x10a4;" horiz-adv-x="1509" d="M157 302q-2 119 18 226t65 204h230q-43 -105 -65 -212t-22 -221q0 -146 84 -226.5t260 -80.5q65 0 127.5 20.5t112.5 51.5q45 35 72.5 92t27.5 124v1137q0 110 -77 184q-78 79 -217 79q-65 0 -120.5 -18t-100.5 -54q-89 -67 -89 -193q0 -48 9 -116.5t28 -158.5h-197 q-27 85 -41 153.5t-14 121.5q0 214 147 339q71 64 162 95t201 31q112 0 208 -31t173 -91q75 -62 115 -147t40 -194v-1144q0 -115 -41 -202.5t-121 -150.5q-158 -127 -405 -127q-121 0 -224 38.5t-184 109.5q-78 75 -120 166t-42 195z" />
<glyph unicode="&#x10a5;" horiz-adv-x="1467" d="M157 275v105q-2 66 18 144t65 172h210q-32 -104 -49.5 -185t-17.5 -140v-80q0 -72 23 -128t71 -93q51 -38 112.5 -58t137.5 -20q164 0 252 75t88 218v219q0 65 -14 117t-39.5 90.5t-61.5 64t-79 36.5h-191v200h195q162 0 162 340v60q0 131 -78 199.5t-223 68.5 q-73 0 -128 -20t-94 -63q-78 -81 -78 -152v-40q0 -40 6 -86t20 -102l-215 -2q-19 47 -28 92t-9 87v64q0 175 165 299q159 123 361 123q257 0 394 -147q134 -143 134 -310v-88q0 -261 -208 -416q120 -54 178 -156.5t58 -258.5v-219q0 -101 -39.5 -187.5t-117.5 -160.5 q-156 -144 -410 -144q-243 0 -406 138q-164 144 -164 344z" />
<glyph unicode="&#x10a6;" horiz-adv-x="1588" d="M72 1440v63q0 75 32 144t89 123q124 110 349 110q120 0 210 -26t150 -75t90 -118.5t30 -157.5v-69q0 -68 -41.5 -140.5t-111.5 -137.5q117 -11 218 -52t168 -113q156 -165 156 -394v-220q0 -270 -157 -426q-155 -158 -439 -158q-263 0 -426 156q-166 158 -166 428v213 q0 146 50.5 252t156.5 179q-185 32 -271.5 137.5t-86.5 281.5zM284 1394q0 -51 18.5 -90.5t53.5 -65.5q39 -26 87 -40t107 -14q58 0 105.5 17t82.5 47q27 29 46.5 68t19.5 78v103q0 39 -19.5 71t-54.5 58q-38 26 -84.5 40t-100.5 14q-63 0 -110 -12t-84 -35q-35 -22 -51 -57 t-16 -84v-98zM447 409q0 -182 98 -302q97 -115 270 -115q178 0 272 115q99 121 99 315v123q0 191 -99 302q-47 57 -115.5 85.5t-156.5 28.5q-159 0 -264 -96q-54 -45 -79 -119t-25 -178v-159z" />
<glyph unicode="&#x10a7;" horiz-adv-x="2262" d="M160 590v548q0 396 152 569q77 88 177 130.5t224 42.5q129 0 227 -42t175 -136q177 178 406 178q267 0 410 -179q141 -182 141 -601v-198q0 -746 -413 -1109h-274q459 432 459 1092v301q0 116 -18.5 209.5t-52.5 159.5q-35 60 -108 92.5t-182 32.5q-166 0 -284 -111 q34 -53 51.5 -112t17.5 -119v-785q0 -166 -35 -301.5t-107 -241.5q-70 -108 -173 -162.5t-240 -54.5q-251 0 -404 192q-149 188 -149 605zM385 612q0 -179 20.5 -300.5t60.5 -189.5q38 -66 100.5 -98t146.5 -32q85 0 149 37.5t101 102.5v-1q37 73 58 178.5t21 235.5v793 q0 80 -22 142.5t-67 106.5q-86 93 -240 93q-166 0 -247 -147t-81 -446v-475z" />
<glyph unicode="&#x10a8;" horiz-adv-x="1464" d="M154 917v234q0 369 161 549q162 180 412 180q130 0 236 -47t181 -135q72 -91 109.5 -230.5t37.5 -326.5v-216q0 -528 -223 -1107h-252q124 300 186 573.5t62 525.5v224q0 140 -23 244t-65 169q-45 62 -107 94t-142 32q-91 0 -156.5 -32t-108 -98t-62.5 -167.5t-20 -241.5 v-224q0 -255 62 -527t189 -572h-249q-228 583 -228 1099z" />
<glyph unicode="&#x10a9;" horiz-adv-x="1464" d="M154 268v117q0 187 89 321h203q-32 -101 -49 -186.5t-17 -157.5v-63q0 -128 93 -216q48 -45 110 -68t140 -23q76 0 137.5 21t109.5 62t71 109.5t23 166.5v135q0 83 -20 154t-59 133q-39 59 -89 88.5t-114 29.5h-279v200h270q55 0 98 16t75 46q64 63 64 174v99 q0 215 -250 257v202q478 -117 478 -462v-56q0 -266 -237 -374q144 -62 217 -188.5t73 -318.5v-135q0 -126 -44 -230t-122 -179q-81 -72 -183 -110.5t-219 -38.5q-241 0 -405 145q-81 74 -122.5 156t-41.5 174z" />
<glyph unicode="&#x10aa;" horiz-adv-x="2867" d="M164 1164v102q0 124 31 229t95 195q125 177 375 177q145 0 242 -60t159 -190q95 263 347 263q253 0 362 -256q63 124 159.5 183.5t230.5 59.5q208 0 354 -149q72 -74 109 -159.5t37 -185.5v-142q0 -387 -362 -698h-249q385 325 385 712v112q0 57 -19.5 110.5t-60.5 101.5 q-41 50 -87 74t-104 24q-63 0 -116 -18.5t-92 -51.5q-35 -35 -56.5 -109t-21.5 -177v-325h-211v322q0 205 -66 288q-63 84 -192 84q-109 0 -181 -82q-75 -81 -75 -279v-333h-209v338q0 205 -69 273q-70 70 -214 70q-116 0 -195 -101q-81 -102 -81 -309v-106q1 -78 26 -159.5 t68 -160t100.5 -152t123.5 -135.5q77 -60 166 -114t184.5 -99.5t195.5 -80t200 -54.5q220 -46 375.5 -138t252.5 -237h-309q-57 52 -127 91t-148.5 66t-164 42t-172.5 17q-60 -6 -121.5 -18.5t-120.5 -30.5t-114.5 -41t-104.5 -51l-145 197q86 24 171.5 43.5t186.5 38.5 q-748 429 -748 989z" />
<glyph unicode="&#x10ab;" horiz-adv-x="1507" d="M154 385v285q0 120 40.5 224.5t123.5 192.5q167 178 411 178q118 0 203 -41.5t146 -135.5v373q0 87 -91 151q-96 68 -243 68t-226 -53q-38 -26 -57 -53t-19 -60v-174h-227v174q0 69 42 134t119 120q78 56 172 84t199 28q208 0 374 -115q80 -57 125 -134t45 -170v-1107 q0 -134 -45 -238.5t-130 -178.5q-84 -69 -183 -106.5t-206 -37.5q-244 0 -409 155q-164 158 -164 437zM380 385q0 -194 98 -294q50 -48 112 -73.5t137 -25.5q69 0 128 24t110 69q99 95 99 300v288q0 107 -23 181t-72 119q-50 47 -110 71t-132 24q-67 0 -130 -31t-114 -78 q-45 -55 -74 -129.5t-29 -159.5v-285z" />
<glyph unicode="&#x10ac;" horiz-adv-x="1507" d="M195 365v1112q0 191 102 285q97 96 242 96q82 0 217 -33q138 -33 208 -33q134 0 330 101v-183q-88 -53 -174 -80t-173 -27q-83 0 -183 28q-50 14 -96 20.5t-88 5.5q-90 2 -133 -43t-43 -145v-389q76 87 167.5 136t191.5 49q243 0 407 -159q163 -161 163 -413v-331 q0 -132 -42.5 -240t-114.5 -183q-78 -66 -183.5 -106t-226.5 -40q-232 0 -401 150q-84 76 -127 181.5t-43 240.5zM423 365q0 -91 24 -159.5t72 -117.5h-1q49 -47 109.5 -71.5t135.5 -24.5q172 0 257.5 100t85.5 288v306q0 187 -92 284q-47 50 -107.5 74t-140.5 24 q-90 0 -155 -23t-107 -70.5t-61.5 -120t-19.5 -172.5v-317z" />
<glyph unicode="&#x10ad;" horiz-adv-x="2289" d="M160 979v127q0 168 29 305.5t92 246.5q123 222 421 222q149 0 256.5 -68.5t174.5 -203.5q126 272 425 272q289 0 418 -223q63 -109 93 -238t30 -278v-162q0 -344 -110.5 -633.5t-333.5 -527.5h-296q509 514 509 1174v127q0 271 -61 422q-57 139 -249 139 q-156 0 -235.5 -90t-79.5 -289v-762h-228v762q0 199 -77 289t-238 90q-171 0 -240 -140q-75 -147 -75 -434v-122q3 -644 519 -1163h-285q-459 477 -459 1158z" />
<glyph unicode="&#x10ae;" horiz-adv-x="1467" d="M157 305v148q-3 103 86 243h205q-32 -92 -48.5 -159.5t-16.5 -112.5v-75q0 -66 24.5 -127.5t69.5 -118.5q47 -52 110 -81.5t140 -29.5q90 0 154 28t105.5 83t61 136.5t19.5 187.5v126q0 71 -18.5 130t-54.5 110q-72 98 -184 98h-223v200h223q42 0 77 13.5t60 41t38.5 70 t13.5 100.5v47q0 48 -69.5 93t-194.5 83q-144 43 -219 128.5t-75 212.5h227q0 -36 18.5 -68t53 -59t83 -49.5t108.5 -39.5q67 -20 121.5 -48.5t93.5 -65t60 -80.5t21 -96v-61q0 -97 -52.5 -177t-163.5 -148q134 -81 208.5 -189.5t74.5 -239.5v-150q0 -140 -40 -251 t-115 -196q-78 -80 -182.5 -124.5t-229.5 -44.5q-106 0 -205 38.5t-186 109.5q-85 75 -132 168t-47 196z" />
<glyph unicode="&#x10af;" horiz-adv-x="1507" d="M154 291v60q0 70 33 175h222q-15 -67 -22 -109.5t-7 -59.5v-72q0 -139 106 -214q57 -39 118 -59t131 -20q74 0 135 25t106 70v-1q43 49 65.5 107.5t22.5 127.5v1349l-163 -37q-42 -10 -84 -19l-84 -18l-169 -36q97 -52 163 -122q84 -93 84 -257q0 -233 -183 -333 q-88 -46 -206.5 -68.5t-267.5 -22.5v201q117 0 205.5 12t142.5 34q47 22 72.5 61.5t24.5 93.5q2 165 -109 249q-56 42 -140 64t-196 22v142l1137 252v-1581q0 -116 -42 -209t-123 -165q-81 -70 -179 -105t-212 -35q-255 0 -417 122q-164 120 -164 376z" />
<glyph unicode="&#x10b0;" horiz-adv-x="2289" d="M160 653v59q0 494 330 830q332 338 1116 338v-200q-96 0 -192 -9t-188.5 -25.5t-177.5 -38.5t-158 -48q-63 -27 -123 -63.5t-114 -80.5t-99.5 -94.5t-78.5 -105.5q67 25 124.5 37.5t102.5 12.5q151 0 257.5 -72.5t170.5 -214.5q160 287 428 287q107 0 201.5 -35.5 t175.5 -108.5q164 -143 164 -409v-64q0 -477 -398 -827h-274q446 413 446 824v67q0 168 -93 267q-94 101 -222 101q-63 0 -118.5 -24.5t-102.5 -73.5q-97 -95 -97 -291v-319h-225v319q0 196 -98 291q-98 98 -215 98q-147 -2 -230 -101q-44 -48 -65.5 -115t-21.5 -152v-75 q0 -402 450 -819h-294q-381 354 -381 835z" />
<glyph unicode="&#x10b1;" horiz-adv-x="1507" d="M195 435v1445h228v-1445q0 -105 22 -187.5t65 -139t106.5 -86.5t146.5 -30q81 0 144.5 32t108.5 90q44 63 67 144t23 180v79q0 187 -156 349q-166 180 -166 312q0 131 79 245l232 -63q-94 -98 -97 -182q2 -59 43 -126.5t119 -139.5q84 -79 128.5 -173t44.5 -197v-123 q0 -272 -158 -448q-81 -88 -183 -133t-229 -45q-121 0 -222.5 38.5t-182.5 116.5q-81 79 -122 200.5t-41 286.5z" />
<glyph unicode="&#x10b2;" horiz-adv-x="1850" d="M157 529v396q0 186 57 330t169 247q106 97 214.5 147t221.5 57l-78 174h330l-77 -175q126 -9 243.5 -58.5t216.5 -142.5q108 -102 162 -247t54 -332v-396q0 -324 -227 -530q-224 -206 -529 -206q-311 0 -533 204q-224 206 -224 532zM383 529q0 -226 141 -382 q141 -155 390 -155q254 0 388 158q140 159 140 379v396q0 305 -111.5 455.5t-347.5 155.5l43 -892h-239l42 892q-102 -2 -179 -39t-138 -110q-129 -150 -129 -462v-396z" />
<glyph unicode="&#x10b3;" horiz-adv-x="1610" d="M44 1668v224q76 -63 127.5 -94.5t80.5 -31.5q39 0 79 47q28 31 57.5 45t59.5 14q177 0 260 -121q68 63 134 92t133 29q77 0 149.5 -22.5t135.5 -64.5q64 -45 97.5 -98.5t33.5 -116.5v-1185q0 -278 -138 -435q-139 -157 -398 -157q-131 0 -239.5 38.5t-190.5 110.5 q-80 75 -123 178.5t-43 230.5v127q0 152 73 260h212q-29 -85 -43.5 -164.5t-14.5 -154.5v-70q0 -83 25.5 -147t75.5 -114h-1q51 -47 117.5 -71.5t151.5 -24.5q82 0 143 26.5t97 69.5q34 51 53.5 129t19.5 178v1175q0 44 -52 81q-56 39 -154 39q-172 0 -172 -120v-512h-183 v512q0 120 -140 120q-29 0 -55 -16.5t-46 -45.5q-52 -78 -120 -78q-92 1 -202 118z" />
<glyph unicode="&#x10b4;" horiz-adv-x="2241" d="M160 1164v105q0 60 9 119t26 114.5t40 106t52 93.5q64 85 169 131.5t244 46.5q118 0 219 -47t189 -147q87 100 187.5 147t221.5 47q123 0 223.5 -39t169.5 -110q66 -73 103 -161t39 -185v-119q-3 -185 -86 -300q-37 -48 -93 -86t-134 -66q73 -23 127 -60t83 -83 q35 -59 52.5 -130t17.5 -150v-84q0 -243 -195 -380q-191 -134 -509 -134q-371 -3 -551 116q-182 118 -182 421h219q0 -230 153 -280q84 -29 173.5 -43.5t187.5 -14.5q235 -3 357 76.5t122 238.5v70q0 81 -18 144t-50 108q-67 82 -166 82h-171v200h171q49 0 93.5 19.5 t86.5 55.5q84 74 84 265v123q0 155 -75.5 230.5t-231.5 75.5q-180 0 -327 -134q28 -66 40.5 -132t12.5 -137v-115q0 -122 -37 -227t-112 -190q-75 -80 -175 -125t-219 -45q-233 0 -387 172q-153 168 -153 417zM385 1164q0 -103 21 -179t59 -121v1q40 -39 100.5 -62 t134.5 -23q76 0 135.5 22.5t98.5 61.5q38 45 59.5 121t21.5 179v98q0 107 -19.5 188.5t-53.5 131.5q-35 45 -98 71.5t-144 26.5q-87 0 -147.5 -22t-94.5 -68q-73 -86 -73 -321v-105z" />
<glyph unicode="&#x10b5;" horiz-adv-x="1507" d="M154 285v25q0 59 16 119.5t50 121.5h227q-67 -134 -67 -249v-32q0 -129 77 -203q41 -37 106.5 -56t159.5 -19q77 0 141 19.5t111 52.5q41 35 65 84.5t24 109.5v614q0 112 -129 262q-62 72 -128.5 110t-135.5 38q-125 0 -173 -55q-51 -57 -51 -132q0 -32 6.5 -83 t20.5 -118h-199q-20 57 -29 107.5t-9 93.5q0 88 29.5 156.5t86.5 122.5q116 104 318 104q71 0 135 -21t115 -61q39 -31 80 -72.5t77 -89.5v462h-266v184h479v-1610q0 -226 -164 -352q-159 -125 -404 -125q-114 0 -213.5 31.5t-184.5 97.5q-171 130 -171 363z" />
<glyph unicode="&#x10b6;" horiz-adv-x="2125" d="M158 1164v111q0 221 128 412q129 193 371 193q275 0 388 -288q55 146 152.5 217t240.5 71q236 0 368 -138v1q68 -68 101 -163.5t33 -219.5v-132q0 -176 -60 -340t-179 -324h-223q117 166 174.5 335.5t57.5 351.5v104q0 164 -64 244.5t-206 80.5t-212 -68 q-67 -66 -67 -373v-320h-228v320q0 304 -73 371q-74 70 -197 70q-30 0 -59 -8.5t-55.5 -23t-50 -34t-41.5 -41.5q-31 -53 -52 -130t-21 -168v-111q0 -382 231 -643q116 -133 249.5 -222.5t286.5 -136.5q162 -52 253 -143.5t111 -228.5h-261q-19 47 -51.5 85t-73 67 t-87.5 48.5t-96 29.5q-18 2 -38.5 3.5t-35.5 1.5q-93 0 -180 -32t-170 -93l-102 203q59 27 130 48.5t156 33.5q-276 195 -412 439t-136 540z" />
<glyph unicode="&#x10b7;" horiz-adv-x="1509" d="M154 270q0 109 50 249h228q-49 -135 -49 -287q0 -45 26 -89t67 -78q48 -34 112 -53.5t139 -19.5q85 0 149 20t109 55q38 38 60 113.5t22 181.5v502q-60 -72 -144.5 -112.5t-193.5 -40.5q-200 0 -367 152q-167 156 -167 399v145q0 207 199 448h256q-241 -301 -241 -482 v-111q0 -145 96 -251q49 -52 103.5 -77.5t120.5 -25.5q86 0 148.5 25.5t105.5 74.5q39 53 61.5 112t22.5 125v610h227v-1516q0 -133 -34 -233t-102 -172q-138 -141 -431 -141q-115 0 -215.5 29.5t-185.5 86.5q-80 57 -125 149t-47 212z" />
<glyph unicode="&#x10b8;" horiz-adv-x="1614" d="M100 1321v238q0 139 92 229q50 48 100.5 70t107.5 22q42 0 89.5 -11.5t94.5 -33.5q79 -40 131 -134q32 56 65.5 89.5t70.5 50.5v-1q41 20 80 30t74 10q193 0 292 -108q97 -106 97 -373v-1014q0 -259 -182 -426q-181 -166 -413 -166q-219 0 -405 165q-190 168 -190 448 v184q0 126 43 233.5t127 195.5q85 85 192.5 132t232.5 47q133 0 226 -40.5t156 -131.5v364q0 100 -12 166t-30 94q-22 20 -62 33t-93 13q-82 0 -124.5 -53.5t-42.5 -147.5v-90h-189v90q0 48 -10 86t-28 64q-40 51 -140 51q-77 0 -119.5 -32.5t-42.5 -104.5v-238h-188z M430 414q0 -88 28.5 -164t82.5 -137v1q54 -54 121.5 -88t136.5 -34q88 0 154.5 30t115.5 90q101 125 101 273v205q0 106 -23.5 182.5t-70 126t-115 73.5t-157.5 24q-81 0 -147 -30.5t-119 -95.5q-55 -64 -81.5 -141t-26.5 -167v-148z" />
<glyph unicode="&#x10b9;" horiz-adv-x="1507" d="M195 -179v1691q0 85 35 152.5t104 117.5q69 51 145 74.5t162 23.5q105 0 192 -22t156 -70q140 -96 140 -259q0 -121 -85 -236l-190 36q34 43 49.5 92t15.5 106q0 153 -281 153q-226 0 -229 -190v-512q75 89 163.5 134.5t190.5 45.5q136 0 242.5 -38t179 -113 t110.5 -186.5t38 -258.5v-87q0 -341 -279 -654h-291q173 161 258 324.5t85 337.5v79q0 85 -20.5 156t-59.5 127q-40 57 -104.5 85.5t-158.5 30.5q-147 -3 -251 -107q-50 -50 -75.5 -110.5t-27.5 -129.5v-793h-214z" />
<glyph unicode="&#x10ba;" horiz-adv-x="1658" d="M156 529v513q0 257 48.5 459t145.5 354h222q-191 -359 -191 -813v-513q0 -103 37.5 -201t99.5 -177q66 -70 147.5 -114.5t166.5 -44.5q89 0 163.5 31t134.5 91q62 62 91.5 138t29.5 170v45q0 75 -13.5 135.5t-39.5 105.5q-26 47 -71.5 68.5t-108.5 21.5h-218v198h218 q45 0 88 17t77 45q32 31 50 79.5t18 113.5q0 71 -47.5 133t-140.5 114q-100 57 -155.5 148t-55.5 209h197q0 -72 53 -137.5t152 -122.5h-1q111 -63 169.5 -147.5t58.5 -190.5q0 -94 -27 -162t-75 -109q-36 -27 -77.5 -50.5t-87.5 -39.5q138 -49 196 -141q71 -113 71 -283 v-50q0 -132 -46.5 -242t-137.5 -203q-181 -184 -465 -184q-306 0 -494 223q-182 218 -182 513z" />
<glyph unicode="&#x10bb;" horiz-adv-x="1507" d="M154 391v291q0 121 34 225t97 188q67 81 177 125.5t261 44.5q42 0 86.5 -12t88.5 -33t86 -50.5t80 -64.5v775h227v-1509q0 -130 -40.5 -233t-118.5 -184q-158 -161 -409 -161q-257 0 -415 167q-154 167 -154 431zM380 371q0 -189 84.5 -284t258.5 -95q75 0 135 24.5 t110 72.5h-1q97 98 97 288v293q0 75 -23 144.5t-65 131.5q-45 60 -107 91t-146 31q-166 0 -254.5 -99.5t-88.5 -298.5v-299z" />
<glyph unicode="&#x10bc;" horiz-adv-x="1614" d="M198 385v1014q0 132 24.5 225.5t73.5 147.5q49 51 123.5 79.5t167.5 28.5q72 0 154 -38q73 -33 136 -141q26 47 58 80.5t73 53.5q47 22 94 33.5t92 11.5q55 0 106.5 -22.5t96.5 -69.5q97 -94 97 -229v-238h-189v238q0 72 -44 104.5t-121 32.5q-98 0 -138 -51 q-18 -26 -29 -64t-11 -86v-90h-186v90q0 94 -43 147.5t-124 53.5q-115 0 -154 -46q-43 -49 -43 -260v-366q64 85 159.5 129.5t222.5 44.5q251 0 425 -179q170 -174 170 -429v-184q0 -140 -48 -251.5t-142 -196.5q-188 -165 -405 -165q-234 0 -415 166q-181 168 -181 426z M423 385q0 -75 25.5 -142.5t74.5 -130.5q50 -60 116.5 -90t154.5 -30q74 0 137 30.5t119 90.5q54 62 82.5 136.5t28.5 164.5v148q0 179 -108 308q-54 65 -118.5 95.5t-145.5 30.5q-179 0 -272.5 -97.5t-93.5 -308.5v-205z" />
<glyph unicode="&#x10bd;" horiz-adv-x="1467" d="M154 357q0 149 75 271h210q-54 -150 -54 -279q0 -63 24.5 -125.5t66.5 -119.5q45 -51 109 -81.5t142 -30.5q79 0 140.5 21t109.5 63q90 82 90 251v44q0 66 -34 134.5t-105 138.5q-149 154 -149 512v540h-235v184h429v-716q0 -77 11.5 -145.5t31.5 -127t48 -105.5t61 -80 q37 -33 68 -73t53.5 -84.5t35 -92t12.5 -96.5v-33q0 -114 -41 -212t-113 -173q-78 -72 -182 -110.5t-231 -38.5t-231 44t-184 128q-76 85 -117 184t-41 208zM290 1126q0 77 26 135.5t72 95.5q46 34 99.5 51t107.5 17h632v-168h-640q-111 0 -108 -131q-3 -130 147 -130h81 v-180h-112q-54 0 -108 17t-99 47q-98 69 -98 246z" />
<glyph unicode="&#x10be;" horiz-adv-x="1507" d="M195 327v1553h228v-781q79 74 167.5 120t172.5 46q143 0 252.5 -45.5t180.5 -126.5q67 -85 102 -186t35 -216v-364q0 -106 -38.5 -201t-109.5 -173q-75 -78 -180.5 -119t-241.5 -41q-104 0 -202.5 39t-185.5 110q-85 75 -132.5 173.5t-47.5 211.5zM423 371 q0 -91 25 -160.5t73 -119.5q50 -48 110 -73.5t132 -25.5q75 0 136 24.5t110 72.5q97 100 97 282v282q0 93 -23 168t-67 134q-45 54 -108.5 83.5t-144.5 29.5q-76 0 -138.5 -26.5t-109.5 -72.5q-45 -49 -68.5 -126.5t-23.5 -181.5v-290z" />
<glyph unicode="&#x10bf;" horiz-adv-x="1467" d="M157 335v114q-2 81 15 161.5t55 158.5h211q-27 -110 -41 -189.5t-14 -130.5v-106q0 -164 98 -258q51 -45 112 -69t136 -24q77 0 138 21t109 62q91 79 91 266v100q0 210 -226 394q-236 197 -267 547q-54 7 -108 14.5t-109 15.5l-200 25v205l417 -62l39 300h202l-47 -313 l231 -28q59 -8 119.5 -14.5t119.5 -13.5v-204l-463 63q8 -72 31 -140t57.5 -128.5t78.5 -113t95 -94.5q59 -45 106.5 -97.5t81 -110t51.5 -119.5t18 -126v-98q0 -231 -155 -391v1q-157 -160 -412 -160q-232 0 -401 162q-84 82 -126.5 176.5t-42.5 203.5z" />
<glyph unicode="&#x10c0;" horiz-adv-x="1464" d="M154 461h226q0 -115 18.5 -201.5t53.5 -149.5v1q71 -119 271 -119q80 0 143 16.5t107 49t67.5 81t23.5 113.5q0 162 -49 237t-144 75h-249v190h249q68 0 113 37q40 36 40 147q0 35 -10.5 63.5t-29.5 48.5q-21 20 -58.5 30.5t-93.5 10.5h-251v200h251q35 0 62 13t48 37 q19 26 31 61.5t12 74.5q0 119 -82 158q-45 22 -185 33.5t-378 11.5v187q255 0 426 -20t260 -63q182 -88 182 -298q0 -87 -38.5 -157.5t-123.5 -130.5q104 -45 153.5 -108.5t49.5 -149.5q0 -47 -13 -89.5t-37 -79t-58 -66.5t-76 -52q51 -27 92.5 -65t71.5 -84.5t46 -101.5 t16 -117q0 -127 -40.5 -219t-118.5 -152q-78 -61 -180.5 -91t-228.5 -30q-282 0 -425.5 163.5t-143.5 504.5z" />
<glyph unicode="&#x10c1;" horiz-adv-x="1507" d="M195 368v1512h214v-1520q3 -171 96 -270v1q50 -48 114 -73.5t147 -25.5q162 0 251 71t89 225q0 65 -10.5 114.5t-33.5 83t-60 50.5t-91 17h-163v187h163q100 0 147.5 50t47.5 135q0 30 -13.5 57.5t-39.5 54.5v-1q-55 55 -179 55h-126v200h126q62 0 105.5 15t70.5 47 t41.5 69t14.5 81q0 80 -74 128h1q-41 23 -112 36t-173 13v200q136 0 242 -21.5t183 -67.5h-1q161 -93 161 -283q0 -218 -213 -312q213 -66 213 -274q0 -217 -216 -285q216 -105 216 -349q0 -119 -39 -210t-114 -156q-148 -129 -417 -129q-122 0 -223.5 36.5t-182.5 111.5 q-80 75 -121 181.5t-41 245.5z" />
<glyph unicode="&#x10c2;" horiz-adv-x="1464" d="M154 -74q269 0 428 92q-428 233 -428 619v555q0 404 160 546q81 72 183.5 107t229.5 35t228.5 -35t179.5 -107q77 -71 116.5 -207.5t39.5 -338.5v-555q0 -196 -102.5 -349t-311.5 -271q68 -48 168.5 -69.5t245.5 -21.5v-200q-141 0 -281.5 49t-283.5 150 q-160 -102 -301.5 -150.5t-270.5 -48.5v200zM380 635q0 -152 85.5 -281t262.5 -240q169 111 252.5 241t83.5 282v555q0 123 -24.5 221.5t-62.5 155.5q-45 52 -107.5 81.5t-142.5 29.5q-81 0 -143 -27.5t-110 -84.5q-46 -57 -70 -164t-24 -266v-503z" />
<glyph unicode="&#x10c3;" horiz-adv-x="1464" d="M154 268v117q0 83 52.5 168t156.5 171l124 -141q-53 -47 -80 -102.5t-27 -118.5v-63q0 -57 21 -109t62 -102q42 -48 105.5 -72t154.5 -24q140 0 243 79q98 74 98 280v135q0 92 -23.5 170t-65.5 136q-45 51 -93.5 82t-99.5 31h-279v202h270q53 0 105.5 39t96.5 102 q39 69 63 175t26 234h-642v-242h-229v440h1098v-248q0 -194 -75 -341t-230 -255q148 -63 226.5 -195t78.5 -330v-135q0 -123 -39 -223t-115 -179q-156 -156 -414 -156q-228 0 -397 138q-172 143 -172 337z" />
<glyph unicode="&#x10c4;" horiz-adv-x="1464" d="M154 327q0 159 172 335l146 -139q-45 -60 -68.5 -110t-23.5 -92q0 -71 24 -129.5t71 -106.5h-1q49 -45 111.5 -69t141.5 -24q187 0 261 83q76 81 76 193v100q0 121 -56.5 184t-188.5 63h-112v201h112q118 -2 178.5 113t66.5 345q-111 -79 -220.5 -117t-224.5 -38 q-122 0 -210 25t-143 78q-112 104 -112 264q0 164 185 279q93 59 223.5 87t303.5 28v-200q-128 0 -227.5 -13.5t-157.5 -33.5q-48 -22 -74.5 -61t-26.5 -95q0 -79 54 -135q53 -56 182 -53q120 -2 288.5 84.5t386.5 259.5q0 -396 -66.5 -624t-201.5 -292q268 -107 268 -352 v-80q0 -118 -39.5 -208t-116.5 -155q-77 -66 -178.5 -97.5t-229.5 -31.5q-268 0 -423 161q-150 161 -150 373z" />
<glyph unicode="&#x10c5;" horiz-adv-x="1628" d="M156 268q0 87 34 167t105 154q142 151 433 151h339v179h-339q-294 0 -433 138h1q-71 68 -105.5 150t-34.5 176q0 101 40.5 191t110.5 161q75 67 183 106t238 39q229 0 394 -130q80 -65 124.5 -161t44.5 -215v-259h160v-196h-160v-179h160v-204h-160v-268 q0 -129 -45.5 -221.5t-130.5 -145.5q-84 -52 -182.5 -80t-204.5 -28q-134 0 -239.5 33.5t-180.5 99.5q-71 66 -111.5 154t-40.5 188zM380 260q0 -114 95 -189q96 -79 253 -79q165 0 252 66t87 210v268h-339q-200 0 -274 -74v1q-36 -38 -55 -88t-19 -115zM380 1383 q0 -63 25 -114t69 -88q42 -32 100 -49.5t125 -17.5h21q2 0 4 0.5t4 0.5h339v259q0 150 -91 225q-45 41 -107.5 61t-140.5 20q-179 0 -263 -84q-85 -79 -85 -213z" />
<glyph unicode="&#x10c6;" horiz-adv-x="2069" d="M161 808v535q0 121 28.5 215t85.5 165q115 140 371 140q247 0 371 -201q58 103 150.5 152t219.5 49q107 0 195.5 -28t153.5 -82q65 -56 100.5 -157.5t35.5 -244.5v-543q0 -125 -37 -221t-109 -165q-144 -135 -337 -135q-77 0 -142.5 24t-124.5 77v-142q0 -450 -574 -450 v186q363 0 363 258v1094q-2 91 -18.5 159t-43.5 105q-30 30 -82 48.5t-121 18.5q-64 0 -113.5 -16.5t-81.5 -47.5q-66 -62 -66 -250v-543q0 -211 82 -272q89 -62 225 -62v-187q-108 0 -204 32t-171 90q-75 63 -115.5 162.5t-40.5 236.5zM1122 808q0 -207 82 -261 q42 -28 87.5 -41.5t95.5 -15.5q80 2 132.5 21t75.5 61q27 41 40 100t13 136v526q0 206 -72 268q-72 63 -189 63q-75 0 -127.5 -17.5t-81.5 -47.5q-27 -35 -41.5 -100t-14.5 -157v-535z" />
<glyph unicode="&#x10d0;" horiz-adv-x="1306" d="M150 563q0 120 55 215l221 -50q-37 -69 -37 -165q0 -364 260 -364q257 0 256 364q1 106 -44.5 186t-126.5 134l1 -1q-138 44 -224 152.5t-115 284.5h228q14 -96 46.5 -154t82.5 -82q91 -39 164 -91.5t124 -118t78.5 -143t27.5 -167.5q-1 -276 -127 -412t-378 -136 q-492 0 -492 548z" />
<glyph unicode="&#x10d1;" horiz-adv-x="1306" d="M150 615q5 257 106.5 409t309.5 194v194q1 132 -134 175q-141 50 -146 258h230q2 -54 34.5 -91.5t88.5 -60.5q66 -29 102 -97t36 -178v-200q370 -131 370 -603q0 -600 -494 -600q-247 0 -373 153.5t-130 446.5zM389 615q0 -418 264 -418q256 0 256 418q-1 423 -254 424 q-268 -2 -266 -424z" />
<glyph unicode="&#x10d2;" horiz-adv-x="1468" d="M150 94q24 253 165 400t403 171q79 52 124 122t47 151q0 71 -63.5 111.5t-172.5 53.5q-92 -12 -147.5 -52.5t-55.5 -108.5q0 -9 1.5 -22.5t6.5 -36.5q-42 -8 -89.5 -15.5t-89.5 -13.5l-33 -2q-12 52 -12 108q0 154 107.5 235.5t309.5 92.5q232 -11 351 -100.5t119 -259.5 q0 -161 -189 -285v-9q366 -144 373 -541q-6 -131 -48 -232.5t-116 -173t-179.5 -113.5t-238.5 -52q-128 11 -231.5 53.5t-177.5 114.5t-116.5 173.5t-47.5 230.5zM389 90q7 -78 34.5 -142.5t70.5 -112.5t100.5 -78.5t126.5 -40.5q72 10 132.5 40.5t105.5 78.5t72 113t33 145 q-3 81 -27.5 145.5t-68 112t-104 77t-135.5 41.5q-68 -12 -125.5 -44.5t-101.5 -82t-73 -113.5t-40 -139z" />
<glyph unicode="&#x10d3;" horiz-adv-x="1975" d="M152 654q0 585 444 585q270 0 365 -242h7q72 252 365 252q473 0 473 -569q0 -290 -121 -436.5t-352 -150.5q-238 17 -362.5 168t-123.5 432q0 361 -233 361q-223 -1 -223 -400q0 -143 33 -260t95 -207.5t152 -154t206 -99.5q145 -38 263 -82.5t203.5 -94.5t135.5 -106.5 t60 -117.5h-238q-14 36 -57 70t-107.5 64t-148 55.5t-178.5 45.5q-91 -8 -181.5 -58t-171.5 -141l-111 143q44 42 99.5 77t122.5 55v24q-416 263 -416 787zM1059 693q0 -396 274 -396q243 0 243 396q0 369 -243 369q-274 0 -274 -369z" />
<glyph unicode="&#x10d4;" horiz-adv-x="1328" d="M152 -1q-1 54 7 104.5t31 104.5l227 -57q-28 -94 -28 -152q0 -292 260 -292q259 0 258 292v703q1 183 -57 272.5t-173 89.5q-130 0 -192.5 -61.5t-62.5 -186.5q0 -42 10.5 -80.5t32.5 -80.5l-84 -33l-111 -41q-33 48 -49 104t-16 125q0 439 470 439q472 0 472 -547v-689 q0 -489 -498 -489q-249 -1 -373.5 118.5t-123.5 356.5z" />
<glyph unicode="&#x10d5;" horiz-adv-x="1304" d="M152 -30q-1 64 7 114.5t31 97.5l110 -29q1 0 1.5 -0.5t1.5 -0.5q5 -2 9 -2.5t14 -5.5l-1 1l34 -10l34 -10l20 -5q-14 -48 -20 -85.5t-6 -64.5q0 -263 280 -263q121 0 180.5 53t59.5 163v139q1 256 -216 256h-129v185h129q206 -3 206 275q0 288 -232 288 q-232 -1 -233 -227q1 -64 18 -136l-104 -30h1l-18 -6q-17 -6 -40.5 -13t-39.5 -12q-24 60 -37 108.5t-13 88.5q0 410 466 410q234 0 351 -118.5t117 -356.5q0 -129 -65 -219.5t-203 -147.5v-10q280 -61 280 -337v-135q0 -401 -478 -401q-513 -2 -515 446z" />
<glyph unicode="&#x10d6;" horiz-adv-x="1306" d="M91 1441q0 401 419 401q405 0 405 -384q0 -88 -27.5 -159t-75.5 -125v-10q171 -30 253 -167.5t82 -385.5q0 -596 -500 -596q-499 0 -499 596q1 189 49.5 305.5t140.5 164.5v14q-247 78 -247 346zM305 1420q-3 -244 221 -244q80 0 122.5 62.5t53.5 181.5q0 240 -196 241 q-201 0 -201 -241zM389 611q3 -412 258 -412q258 0 258 412q0 397 -263 395q-126 1 -190 -98.5t-63 -296.5z" />
<glyph unicode="&#x10d7;" horiz-adv-x="2007" d="M152 639q0 608 494 608q142 0 235 -55t137 -163h5q82 218 354 218q461 0 461 -571q-1 -184 -77 -351t-231 -324h-275q346 316 346 669q0 394 -224 394q-228 0 -228 -435q0 -614 -505 -614q-492 0 -492 624zM391 646q0 -449 253 -449q265 0 267 432q-1 435 -265 435 q-255 0 -255 -418z" />
<glyph unicode="&#x10d8;" horiz-adv-x="1304" d="M152 687q0 562 497 562q496 0 496 -562q0 -183 -39.5 -354t-119.5 -338h-216q71 197 104.5 368t32.5 324q0 375 -258 375q-262 0 -262 -375q0 -160 32 -330.5t96 -361.5h-205q-81 167 -120 339t-38 353z" />
<glyph unicode="&#x10d9;" horiz-adv-x="1306" d="M150 5q0 44 10 89.5t30 91.5l209 -94l-18 -89q0 -293 259 -293q267 0 267 295v40q0 275 -267 275h-166v195h166q244 0 244 220q0 99 -76.5 174.5t-236.5 134.5v197q278 -65 415 -191t137 -315q2 -231 -296 -317v-7q163 -29 241.5 -119t78.5 -247v-40q-2 -481 -507 -481 q-490 0 -490 481z" />
<glyph unicode="&#x10da;" horiz-adv-x="2636" d="M154 688q0 551 468 551q123 0 210.5 -51.5t138.5 -151.5h11q52 104 133 158.5t190 54.5q118 -1 202 -57t132 -161h10q51 103 136 155.5t203 52.5q472 0 472 -544q-2 -305 -236 -492l-87 54q-15 10 -40 25.5t-41 24.5q84 85 125.5 180.5t41.5 207.5q0 358 -235 357 q-122 2 -182.5 -72t-58.5 -225l-7 -139l-6 -116q0 -4 -0.5 -9.5t-0.5 -11.5v-22h-190l-14 298q0 307 -224 307q-220 0 -220 -307l-13 -298h-186q-1 27 -2 62t-3 61q-2 43 -3.5 86.5t-3.5 88.5q-1 149 -62.5 223t-189.5 74q-113 2 -170.5 -89.5t-56.5 -280.5q0 -595 742 -678 q397 -71 601 -188.5t209 -283.5h-219q-3 51 -50 94.5t-136 80.5t-219 66t-299 51h1q-9 1 -20.5 1h-20.5q-137 0 -233 -39t-159 -124l-140 173q41 35 90.5 65t104.5 52q-245 98 -369 282t-124 454z" />
<glyph unicode="&#x10db;" horiz-adv-x="1325" d="M150 595q0 575 499 575q177 0 262 -145h8v441q0 195 -270 195q-105 0 -157.5 -45.5t-58.5 -130.5h-236q7 360 452 360q496 -3 496 -379v-929q0 -522 -480 -522q-515 0 -515 580zM387 597q0 -400 282 -400q236 0 236 340q0 443 -256 443q-262 0 -262 -383z" />
<glyph unicode="&#x10dc;" horiz-adv-x="1328" d="M170 568v928q-2 319 342 319h511v-189h-511q-117 -3 -117 -122v-443h19q42 75 104 111.5t145 36.5q505 0 505 -594q-3 -600 -505 -600q-493 0 -493 553zM398 568q0 -371 263 -369q267 -2 267 416q-1 406 -267 406q-263 0 -263 -453z" />
<glyph unicode="&#x10dd;" horiz-adv-x="1971" d="M152 684q0 565 464 565q134 0 223.5 -56.5t135.5 -167.5h6q54 115 144 169.5t218 54.5q459 0 459 -565q0 -406 -312 -677h-232q152 204 228 371t76 306q0 380 -221 380q-258 0 -258 -329l-11 -229h-190l-5 123l-1 30q-2 16 -2.5 34.5t-1.5 34.5v7q0 329 -258 329 q-218 0 -218 -380q-4 -265 290 -677h-232q-302 272 -302 677z" />
<glyph unicode="&#x10de;" horiz-adv-x="1306" d="M150 505q0 69 14 129.5t43 115.5l65 -22l145 -46q-34 -89 -34 -175q0 -310 259 -310q263 0 263 402q0 350 -294 350h-125v176h149q224 0 225 224q0 91 -59.5 146.5t-177.5 75.5q-115 23 -180 91.5t-73 174.5h231q13 -89 237 -145q253 -67 253 -345q0 -119 -62 -198 t-183 -119v-5q154 -48 227 -153t74 -273q0 -584 -505 -584q-492 0 -492 490z" />
<glyph unicode="&#x10df;" horiz-adv-x="1328" d="M150 -30h242q4 -263 241 -263q280 0 280 302v1039l-197 -27l-113 -15q-32 -4 -61 -7.5t-59 -8.5v-20q125 -54 184 -150t59 -236q0 -362 -576 -366v212q373 3 373 154q0 293 -373 404v141l180 28l191 29l121 19l503 80v-1278q2 -483 -505 -483q-485 0 -490 446z" />
<glyph unicode="&#x10e0;" horiz-adv-x="1994" d="M152 714q1 162 61.5 327t175.5 328q118 160 367.5 290.5t628.5 226.5l54 -205q-382 -71 -619.5 -191.5t-329.5 -288.5v-11q11 5 24 11t24 11l22 10l64 27q129 -1 218 -68t139 -194h11q53 135 142 198.5t217 63.5q473 0 473 -535q0 -419 -305 -709h-245 q158 220 234.5 394.5t76.5 314.5q-1 350 -242 350q-248 0 -248 -347l-14 -164h-184q-2 20 -3.5 41.5t-3.5 36.5l-2 25l-6 59q1 175 -61 262t-183 87q-245 0 -245 -350q0 -138 75.5 -312t230.5 -397h-243q-304 288 -304 709z" />
<glyph unicode="&#x10e1;" horiz-adv-x="1328" d="M168 623v1180h235v-1180q-2 -214 67 -320t207 -106q251 0 251 426q0 119 -30 204.5t-82 132.5q-55 45 -87.5 90t-32.5 83q0 174 191 302l115 -167q-59 -30 -85.5 -53.5t-26.5 -43.5q0 -60 136 -171q142 -119 142 -377q0 -608 -491 -608q-509 0 -509 608z" />
<glyph unicode="&#x10e2;" horiz-adv-x="1664" d="M150 385q0 375 152.5 577.5t449.5 231.5l-18 396h189l-18 -400q294 -28 444.5 -231t150.5 -582q-2 -853 -670 -853q-680 0 -680 861zM386 385q0 -678 440 -678q439 0 439 678q0 281 -90 445.5t-270 213.5q0 -7 0.5 -11.5t0.5 -11.5q2 -67 4 -139t5 -140l8 -324h-189 l18 624q-183 -48 -274.5 -212t-91.5 -445z" />
<glyph unicode="&#x10e3;" horiz-adv-x="1376" d="M150 1064v185h131q209 0 275 -179h10q88 179 255 179q373 0 373 -479v-771q-3 -475 -502 -475q-491 0 -491 475q0 97 17.5 184t51.5 167q23 -11 53.5 -23t52.5 -20l32 -12q18 -7 40 -14.5t38 -14.5q-23 -62 -36 -128.5t-13 -138.5q0 -292 255 -292q276 0 276 292v771 q-2 294 -161 294q-144 0 -144 -246l-13 -245h-174q-1 29 -2 65t-3 63l-5 118q0 245 -178 245h-138z" />
<glyph unicode="&#x10e4;" horiz-adv-x="1973" d="M152 674q0 575 489 575q274 0 369 -241h7q47 119 134.5 175t219.5 56q433 0 433 -469q0 -157 -56.5 -257.5t-177.5 -149.5v-8q208 -58 208 -277v-161q0 -393 -614 -393q-564 0 -574 333h233q10 -150 341 -150q189 0 282 51.5t93 158.5v157q0 183 -104 183h-129v197h129 q127 0 127 316q2 284 -191 284q-227 0 -227 -302v-102q0 -537 -493 -537q-498 0 -499 561zM396 674q0 -377 245 -377q278 0 278 353q0 412 -278 412q-245 0 -245 -388z" />
<glyph unicode="&#x10e5;" horiz-adv-x="1328" d="M150 -1q0 60 9 109t35 98l224 -62q-16 -39 -23 -74.5t-8 -70.5q0 -292 255 -292q274 0 273 292v660q1 403 -273 403q-233 3 -233 -224q0 -69 48 -159l-63 -26l-29 -12q-24 -9 -52 -20.5t-50 -21.5q-66 96 -66 239q0 411 452 411q88 0 153.5 -32t109.5 -92h5v678h230 v-1804q0 -475 -505 -475q-492 0 -492 475z" />
<glyph unicode="&#x10e6;" horiz-adv-x="1971" d="M152 659q2 590 468 590q248 0 356 -224h10q48 115 130.5 169.5t203.5 54.5q482 0 482 -522q0 -154 -54.5 -281.5t-167.5 -234.5l-51 31q-28 17 -59 34.5t-52 31.5q75 89 111.5 194t36.5 227q-1 335 -240 335q-243 0 -243 -309l-11 -302h-190l-5 162l-1 43q-2 19 -2.5 42 t-1.5 42v13q0 309 -252 309q-227 0 -227 -405q0 -143 38.5 -262t114 -212.5t186.5 -161.5t256 -109q214 -66 326.5 -164.5t117.5 -229.5h-223q-7 66 -87.5 122t-225.5 97q-39 9 -78 9q-75 0 -158 -40t-170 -116l-105 161q81 101 184 130v15q-415 249 -417 761z" />
<glyph unicode="&#x10e7;" horiz-adv-x="1328" d="M150 8h239q4 -301 253 -301q277 0 277 292v249h-7q-68 -113 -270 -113q-492 0 -492 573q0 286 259 543l215 -76q-121 -121 -179 -236.5t-58 -230.5q0 -383 255 -383q277 0 277 265v615h228v-1215q0 -466 -505 -466q-489 0 -492 484z" />
<glyph unicode="&#x10e8;" horiz-adv-x="1325" d="M150 604q0 280 123 422t369 142q174 0 270 -152h5v433q0 222 -158 222q-143 0 -143 -207v-52h-202v54q0 202 -134 205l-35 -14l-77 -27v212h123q143 0 220 -181h9q76 181 265 181q360 0 360 -393v-859q0 -575 -454 -575q-540 0 -541 589zM387 604q-1 -407 304 -407 q220 0 220 393q0 389 -269 389q-255 0 -255 -375z" />
<glyph unicode="&#x10e9;" horiz-adv-x="1325" d="M170 15v1397q-1 430 418 430q420 0 420 -373q1 -54 -19.5 -120t-61.5 -143l1 -2q117 -69 176 -188t59 -288q0 -235 -57.5 -415.5t-176.5 -317.5q-38 3 -77.5 6.5t-75.5 7.5l-83 8q116 140 174.5 316t58.5 395q0 336 -247 336q-283 -2 -283 -356v-693h-226zM396 1099h21 q42 75 130.5 111t222.5 39q14 58 22 109.5t8 88.5q0 214 -208 214q-196 0 -196 -265v-297z" />
<glyph unicode="&#x10ea;" horiz-adv-x="1447" d="M150 169v298q0 257 39 456t116 349l85 -38l129 -60q-128 -170 -130 -637v-368q1 -462 338 -462q165 0 247.5 85.5t81.5 258.5q1 279 -177 279h-187v178h178q160 0 158 260q1 64 -33 111.5t-90 73.5q-32 15 -59.5 40t-47.5 59.5t-31.5 78t-12.5 94.5h230q2 -73 28.5 -123 t73.5 -74v1q81 -35 122 -99.5t41 -155.5q0 -234 -196 -344v-10q117 -39 174.5 -140.5t57.5 -264.5q-2 -491 -561 -491q-574 0 -574 645z" />
<glyph unicode="&#x10eb;" horiz-adv-x="1328" d="M150 616q0 633 492 633q106 0 172.5 -31.5t99.5 -100.5h3v686h228v-1178q1 -307 -123.5 -458.5t-379.5 -151.5q-492 0 -492 601zM387 616q0 -419 255 -419q265 0 265 428q-1 439 -265 439q-255 0 -255 -448z" />
<glyph unicode="&#x10ec;" horiz-adv-x="1328" d="M168 554v942q0 174 80 260t238 86q234 0 310 -175h8q39 91 94 133t130 42h140v-214l-132 43q-135 -5 -135 -217v-50h-201v47q0 220 -197 220q-108 0 -108 -175v-482h15q37 80 102.5 117t162.5 37q246 0 369.5 -140t123.5 -417q0 -596 -495 -596q-505 0 -505 539zM405 554 q0 -355 268 -355q253 0 253 412q0 368 -251 368q-270 0 -270 -425z" />
<glyph unicode="&#x10ed;" horiz-adv-x="1348" d="M150 848q0 55 19.5 114.5t55.5 109.5t86.5 82.5t112.5 32.5h229v616h201l2 -616h216l2 -157h-218v-452q4 -23 18.5 -50t35.5 -56.5t48 -58.5t57 -54q38 -30 69.5 -68.5t54 -84t34.5 -96.5t12 -105q0 -481 -498 -481q-120 0 -211.5 32.5t-154 94.5t-95.5 151t-37 203 q2 53 27.5 114.5t80.5 130.5l184 -132q-51 -53 -51 -119q0 -292 257 -292q262 0 261 298q0 85 -42 159t-114 128q-65 69 -101 139.5t-38 142.5v456h-209q-28 0 -48.5 -17t-33.5 -42.5t-19 -55t-6 -54.5q0 -26 6 -57.5t19 -59.5t33.5 -46.5t48.5 -18.5h37v-144h-57 q-62 0 -112.5 28.5t-86.5 73.5t-55.5 100.5t-19.5 110.5z" />
<glyph unicode="&#x10ee;" horiz-adv-x="1325" d="M168 633v1170h235v-708h17q49 76 112 115t141 39q492 0 492 -616q-2 -618 -492 -618q-505 0 -505 618zM413 633q0 -436 258 -434q255 0 257 434q-2 429 -261 429q-254 0 -254 -429z" />
<glyph unicode="&#x10ef;" horiz-adv-x="1306" d="M150 5q0 95 26.5 178.5t87.5 162.5l8 -7h-1q20 -12 44.5 -26.5t42.5 -26.5l19 -11l49 -31v1l20 -10q-29 -55 -43 -113t-14 -117q0 -298 253 -298q267 0 267 308q-1 115 -46.5 212.5t-132.5 178.5q-89 84 -137.5 176.5t-49.5 189.5v151l-69 23q-36 10 -72 24 q-38 14 -82.5 28t-84.5 28l-26 9l-32 10v234l366 -135v332h187v-374q28 -8 55.5 -16.5t53.5 -18.5q11 -3 21 -6.5t21 -6.5q11 -4 21.5 -7t21.5 -6l76 -24h-1l148 -46v-229l-417 138v-108q0 -32 14.5 -69.5t41 -77t64 -81.5t83.5 -83q102 -91 157.5 -211t56.5 -265 q0 -461 -505 -461q-492 0 -492 481z" />
<glyph unicode="&#x10f0;" horiz-adv-x="1304" d="M150 507v128h242v-128q-3 -310 250 -310q267 0 265 237q0 192 -115 192h-223v193h223q105 0 105 133q1 123 -105 123h-223v197h221q95 0 96 144q0 21 -18.5 39.5t-51.5 35t-77.5 30t-96.5 23.5q-127 22 -201.5 96.5t-78.5 201.5h235q3 -28 21.5 -51t50.5 -42t75.5 -32.5 t95.5 -21.5q64 -10 116 -33t89 -58.5t56.5 -83.5t19.5 -108q0 -163 -168 -224v-10q180 -66 180 -228q0 -77 -42.5 -131t-131.5 -91v-8q94 -60 140 -127.5t46 -148.5q0 -429 -494 -429q-501 0 -501 492z" />
<glyph unicode="&#x10f1;" horiz-adv-x="1395" d="M150 80q0 80 5 166.5t13.5 172.5t20 168t24.5 154q10 45 16 95t6 98q0 94 -21.5 208t-61.5 243h236q35 -112 52.5 -222.5t17.5 -221.5q0 -53 -3 -102.5t-11 -101.5q-26 -131 -39 -293.5t-15 -363.5q3 -373 337 -373q283 0 279 172q0 115 -27.5 170t-83.5 56h-165v184h165 q111 0 111 145q0 182 -109 182h-167v180h167q109 0 109 171q0 143 -111 143h-165v186h165q111 0 111 158q0 43 -45 74t-128 49q-82 23 -128 89.5t-50 175.5h210q12 -93 183 -147h-1q187 -58 187 -241q0 -100 -50.5 -160.5t-156.5 -83.5v-5q106 -25 156.5 -84.5t50.5 -153.5 q0 -111 -50.5 -174.5t-156.5 -83.5v-8q106 -26 156.5 -91.5t50.5 -175.5q-1 -173 -207 -233v-8q103 -37 155 -115t52 -199q0 -355 -507 -355q-577 0 -577 556z" />
<glyph unicode="&#x10f2;" horiz-adv-x="1287" d="M150 616q3 143 35.5 256t93 191.5t150 120t208.5 41.5q489 0 489 -609q0 -179 -71.5 -319t-211.5 -240q38 -50 95 -71t135 -19v-261q-136 44 -241.5 116.5t-194.5 180.5q-91 -107 -199 -178.5t-243 -117.5v260q81 2 137.5 24t86.5 66q-133 100 -200 241.5t-69 317.5z M382 616q0 -175 63.5 -286.5t191.5 -159.5q131 48 193 160t60 286q3 428 -260 428q-248 0 -248 -428z" />
<glyph unicode="&#x10f3;" horiz-adv-x="1287" d="M150 7l6 27l6 21l4 14l19 71l226 -26l-29 -110q4 -140 67 -215t188 -75q253 0 253 291v32q0 334 -306 330h-139v201h139q270 0 270 399l-2 75l-439 -34v-234h-218v418l931 31q-2 -266 -74.5 -450.5t-227.5 -295.5q302 -138 302 -440v-32q0 -236 -123.5 -354.5 t-372.5 -118.5q-480 0 -480 475z" />
<glyph unicode="&#x10f4;" horiz-adv-x="1287" d="M150 15h232q4 -301 253 -301q255 0 255 291v61q0 258 -260 258h-185v195h183q57 10 105 44.5t83 92t55 139t22 186.5q-54 -20 -117.5 -28.5t-135.5 -8.5q-247 -2 -368.5 100t-121.5 314q0 225 124 337.5t376 113.5v-183q-315 -3 -315 -268q0 -118 75 -174.5t227 -56.5 q112 0 230.5 49.5t257.5 149.5v-319q2 -229 -73 -372t-232 -204v-9q159 -37 233.5 -125t74.5 -231v-61q0 -473 -491 -473q-243 0 -364.5 119t-122.5 364z" />
<glyph unicode="&#x10f5;" horiz-adv-x="1419" d="M151 405q0 400 479 401h259v205h-259q-479 0 -479 403q0 395 485 395q489 0 489 -395v-218h130v-185h-130v-205h130v-223h-130v-178q0 -390 -492 -390q-482 0 -482 390zM384 412q0 -219 251 -219q254 0 254 230v193h-259q-246 0 -246 -204zM384 1412q0 -216 246 -216h259 v218q0 212 -254 212q-251 0 -251 -214z" />
<glyph unicode="&#x10f6;" horiz-adv-x="2037" d="M152 633q0 590 489 592q262 0 369 -228h6q49 118 138 173t221 55q489 0 489 -592q1 -618 -489 -618q-151 0 -239 135h-9v-172q0 -218 -123.5 -330.5t-371.5 -114.5v183q260 3 260 260v657q0 411 -251 411q-256 0 -256 -411q0 -387 286 -393v-186q-260 2 -389.5 148 t-129.5 431zM1127 456q0 -263 248 -263q251 0 251 440q0 411 -255 411q-244 0 -244 -378v-210z" />
<glyph unicode="&#x10f7;" horiz-adv-x="1494" d="M150 25q0 430 378 562q365 114 365 252q0 205 -163 205q-97 0 -145.5 -45.5t-52.5 -127.5l3 -33q0 -2 0.5 -4t0.5 -4l2 -31l-205 -27l-18 84q1 369 415 369q396 0 396 -400q0 -249 -386 -399q-356 -91 -356 -393q0 -319 346 -319q364 0 364 324q0 126 -81 204l198 115 q61 -69 89.5 -150.5t29.5 -181.5q-1 -246 -152 -369t-454 -123q-288 0 -430.5 123t-143.5 369z" />
<glyph unicode="&#x10f8;" horiz-adv-x="1287" d="M150 -7v1205h237v-650q0 -208 264 -208q244 0 244 336q0 276 -263 492q26 10 61.5 23t61.5 22l31 11h-1l63 24q279 -267 280 -572q0 -267 -119.5 -398.5t-357.5 -131.5q-88 0 -150 24.5t-103 75.5h-11v-247q-3 -285 264 -285q241 0 244 294h233q-6 -475 -481 -475 q-497 0 -497 460z" />
<glyph unicode="&#x10f9;" horiz-adv-x="1395" d="M152 729q-1 256 134.5 385t411.5 129q536 -2 536 -514q0 -161 -96.5 -290t-291.5 -231q-314 -129 -314 -298q0 -196 173 -196q209 0 209 147v98h222v-98q-2 -329 -431 -329q-404 0 -404 365q0 121 64.5 209.5t187.5 145.5q-401 118 -401 477zM389 729q0 -139 80 -219.5 t229 -105.5q67 15 122.5 43t95 69t61.5 94.5t22 118.5q0 331 -301 331q-309 0 -309 -331z" />
<glyph unicode="&#x10fa;" horiz-adv-x="1393" d="M148 719q0 250 127 376t369 130q222 -26 338.5 -143.5t116.5 -328.5q0 -60 -10.5 -129.5t-33.5 -160.5l-180 79q8 54 11 95.5t3 71.5q0 73 -18 130t-50.5 99t-78.5 68.5t-102 37.5q-57 -3 -102.5 -27.5t-78.5 -66.5t-52 -100.5t-23 -128.5q6 -83 24 -157t47 -133t68 -101 t87 -61h-1q101 -23 188 -78.5t166 -148.5l-145 -121q-14 24 -30.5 43t-41.5 45q-31 33 -72 48t-95 15q-140 0 -220 -128l-165 89q82 122 211 154v22q-131 68 -194 195.5t-63 314.5z" />
<glyph unicode="&#x10fb;" horiz-adv-x="872" d="M100 51v193h207v-193h-207zM100 852v193h211v-193h-211zM586 475v191h202v-191h-202z" />
<glyph unicode="&#x10fc;" horiz-adv-x="653" d="M100 1091v345q0 193 198 193h251v-95l-276 2q-65 0 -65 -80v-156l122 80q221 0 221 -289q0 -301 -228 -303q-223 0 -223 303zM208 1085q0 -204 115 -204q120 0 120 210q0 182 -125 182q-110 0 -110 -188z" />
<glyph unicode="&#x2000;" horiz-adv-x="998" />
<glyph unicode="&#x2001;" horiz-adv-x="1997" />
<glyph unicode="&#x2002;" horiz-adv-x="998" />
<glyph unicode="&#x2003;" horiz-adv-x="1997" />
<glyph unicode="&#x2004;" horiz-adv-x="665" />
<glyph unicode="&#x2005;" horiz-adv-x="499" />
<glyph unicode="&#x2006;" horiz-adv-x="332" />
<glyph unicode="&#x2007;" horiz-adv-x="332" />
<glyph unicode="&#x2008;" horiz-adv-x="249" />
<glyph unicode="&#x2009;" horiz-adv-x="399" />
<glyph unicode="&#x200a;" horiz-adv-x="110" />
<glyph unicode="&#x200f;" horiz-adv-x="0" />
<glyph unicode="&#x2010;" horiz-adv-x="776" d="M104 504v172h568v-172h-568z" />
<glyph unicode="&#x2011;" horiz-adv-x="776" d="M104 504v172h568v-172h-568z" />
<glyph unicode="&#x2012;" horiz-adv-x="1368" d="M104 512v154h1160v-154h-1160z" />
<glyph unicode="&#x2013;" d="M104 512v154h867v-154h-867z" />
<glyph unicode="&#x2014;" horiz-adv-x="2150" d="M104 512v154h1942v-154h-1942z" />
<glyph unicode="&#x2015;" horiz-adv-x="2150" d="M0 512v154h2150v-154h-2150z" />
<glyph unicode="&#x2016;" d="M272 -508v2150h179v-2150h-179zM618 -508v2150h179v-2150h-179z" />
<glyph unicode="&#x2017;" d="M-20 -18h1116v-152h-1116v152zM-20 -356h1116v-152h-1116v152z" />
<glyph unicode="&#x2018;" horiz-adv-x="684" d="M182 1051v182l172 336h135l-86 -336v-182h-221z" />
<glyph unicode="&#x2019;" horiz-adv-x="684" d="M186 1073l86 334v162h224v-162l-174 -334h-136z" />
<glyph unicode="&#x201a;" horiz-adv-x="684" d="M182 -250l86 336v180h221v-180l-172 -336h-135z" />
<glyph unicode="&#x201b;" horiz-adv-x="684" d="M186 1407v162h222v-162l88 -334h-138z" />
<glyph unicode="&#x201c;" horiz-adv-x="1114" d="M182 1051v182l172 336h135l-86 -336v-182h-221zM612 1051v182l172 336h138l-86 -336v-182h-224z" />
<glyph unicode="&#x201d;" horiz-adv-x="1114" d="M182 1051l86 335v183h221v-183l-172 -335h-135zM612 1051l86 335v183h224v-183l-172 -335h-138z" />
<glyph unicode="&#x201e;" horiz-adv-x="1114" d="M182 -250l86 336v180h221v-180l-172 -336h-135zM612 -250l86 336v180h224v-180l-172 -336h-138z" />
<glyph unicode="&#x201f;" horiz-adv-x="1114" d="M182 1386v183h221v-183l86 -335h-135zM612 1386v183h224v-183l86 -335h-138z" />
<glyph unicode="&#x2020;" d="M59 967v159h385v443h187v-443h385v-159h-385v-1174h-187v1174h-385z" />
<glyph unicode="&#x2021;" d="M59 233v162h385v572h-385v159h385v443h187v-443h385v-159h-385v-572h385v-162h-385v-440h-187v440h-385z" />
<glyph unicode="&#x2022;" horiz-adv-x="1268" d="M322 801q0 129 91 219t224 90q129 0 219 -90t90 -219q0 -131 -90 -222.5t-221 -91.5t-222 91.5t-91 222.5z" />
<glyph unicode="&#x2023;" horiz-adv-x="1268" d="M322 403v791l708 -395z" />
<glyph unicode="&#x2024;" horiz-adv-x="719" d="M248 0v266h223v-266h-223z" />
<glyph unicode="&#x2025;" horiz-adv-x="1436" d="M248 0v266h223v-266h-223zM965 0v266h223v-266h-223z" />
<glyph unicode="&#x2026;" horiz-adv-x="2150" d="M248 0v266h223v-266h-223zM965 0v266h221v-266h-221zM1679 0v266h224v-266h-224z" />
<glyph unicode="&#x2027;" horiz-adv-x="684" d="M231 649v269h222v-269h-222z" />
<glyph unicode="&#x202a;" horiz-adv-x="0" />
<glyph unicode="&#x202b;" horiz-adv-x="0" />
<glyph unicode="&#x202c;" horiz-adv-x="0" />
<glyph unicode="&#x202d;" horiz-adv-x="0" />
<glyph unicode="&#x202e;" horiz-adv-x="0" />
<glyph unicode="&#x202f;" horiz-adv-x="428" />
<glyph unicode="&#x2032;" horiz-adv-x="487" d="M43 1176l180 393h213l-303 -393h-90z" />
<glyph unicode="&#x2035;" horiz-adv-x="487" d="M43 1569h213l180 -393h-92z" />
<glyph unicode="&#x2039;" horiz-adv-x="860" d="M166 588v86l491 438v-201l-315 -280l315 -283v-201z" />
<glyph unicode="&#x203a;" horiz-adv-x="860" d="M203 147v201l315 283l-315 280v201l491 -438v-86z" />
<glyph unicode="&#x203e;" d="M-20 1472v152h1116v-152h-1116z" />
<glyph unicode="&#x2043;" d="M231 674v231h629v-231h-629z" />
<glyph unicode="&#x2044;" horiz-adv-x="358" d="M-393 -31l979 1626h168l-979 -1626h-168z" />
<glyph unicode="&#x204b;" horiz-adv-x="1368" d="M248 -207v1776h471q225 0 361.5 -123t136.5 -322q0 -192 -123 -309t-351 -133v-889h-147v1645h-201v-1645h-147z" />
<glyph unicode="&#x204c;" d="M227 784q0 131 90.5 220.5t223.5 89.5v-623h-2q-131 0 -221.5 91t-90.5 222zM666 471v623h182v-621z" />
<glyph unicode="&#x204d;" d="M227 473v621h185v-623zM535 471v623q133 0 223 -89.5t90 -220.5t-90 -222t-221 -91h-2z" />
<glyph unicode="&#x204e;" d="M63 225l377 205l-377 203l62 104l352 -213v395h121v-395l352 213l62 -104l-377 -203l377 -205l-62 -102l-352 213v-398h-121v398l-352 -213z" />
<glyph unicode="&#x2055;" horiz-adv-x="1802" d="M328 698v168h370l-262 264l119 119l262 -264v373h168v-373l262 262l119 -117l-262 -264h371v-168h-371l262 -260l-119 -121l-262 265v-371h-168v369l-262 -263l-119 121l262 260h-370z" />
<glyph unicode="&#x205f;" horiz-adv-x="499" />
<glyph unicode="&#x20a4;" horiz-adv-x="1303" d="M129 0v170h236v322h-191v143h191v143h-199v143h199v95q0 261 107 382.5t339 121.5q61 0 136.5 -15.5t154.5 -44.5v-182q-76 41 -144 61.5t-129 20.5q-148 0 -206 -77.5t-58 -289.5v-72h391v-143h-391v-143h399v-143h-399v-322h557v-170h-993z" />
<glyph unicode="&#x20ac;" horiz-adv-x="1368" d="M0 547l57 129h148q0 22 -1 48t-1 58q0 37 1 61.5t1 49.5h-205l57 129h164q43 268 206 420.5t411 152.5q102 0 199.5 -36.5t187.5 -110.5v-225q-95 110 -184 157t-195 47q-166 0 -271.5 -104t-140.5 -301h606l-57 -129h-565q-2 -27 -2 -50.5v-60.5v-57t2 -49h469l-60 -129 h-393q35 -197 140.5 -303.5t271.5 -106.5q106 0 195 47t184 158v-221q-92 -76 -189.5 -114t-197.5 -38q-250 0 -412 152.5t-205 425.5h-221z" />
<glyph unicode="&#x2116;" horiz-adv-x="2130" d="M54 0v170q147 0 147 107v1216h272l662 -1249v972q0 128 78.5 202.5t264.5 74.5v-170q-147 0 -147 -107v-1216h-272l-662 1249v-972q0 -128 -78.5 -202.5t-264.5 -74.5zM1491 0v123h494v-123h-494zM1491 622q0 138 72 233.5t175 95.5t175 -95.5t72 -233.5t-72 -233.5 t-175 -95.5t-175 95.5t-72 233.5zM1631 622q0 -78 28.5 -129.5t78.5 -51.5t78.5 51.5t28.5 129.5t-28.5 129.5t-78.5 51.5t-78.5 -51.5t-28.5 -129.5z" />
<glyph unicode="&#x2122;" horiz-adv-x="2048" d="M295 1399v94h518v-94h-203v-484h-114v484h-201zM926 915v578h172l174 -256l164 256h170v-578h-113v484l-195 -303h-55l-203 303v-484h-114z" />
<glyph unicode="&#x2190;" horiz-adv-x="1716" d="M100 597v90l393 393l120 -120l-233 -233h1219v-170h-1219l233 -233l-120 -120z" />
<glyph unicode="&#x21b2;" horiz-adv-x="1716" d="M346 364v90l393 393l120 -120l-233 -233h493v999h170v-1169h-663l233 -233l-120 -120z" />
<glyph unicode="&#x21b5;" horiz-adv-x="1716" d="M100 597v90l393 393l120 -120l-233 -233h793v556h170v-726h-963l233 -233l-120 -120z" />
<glyph unicode="&#x21e7;" horiz-adv-x="1716" d="M350 1036l508 508l508 -508h-273v-1036h-470v1036h-273zM592 1136h131v-1036h270v1036h131l-266 266z" />
<glyph unicode="&#x25fc;" horiz-adv-x="1175" d="M0 0v1175h1175v-1175h-1175z" />
<glyph horiz-adv-x="0" />
</font>
</defs>
</svg>
